.
Авторизация | Регистрация
Хочешь лучшие торренты? Добавь свой email!
Добавить

Торрент скачать бесплатно

  • support: webmaster@btracker.org
» » Разборчивый жених (1993) SATRip [H.264] [MP4|704x528] торрент скачать бесплатно


    Разборчивый жених (1993) SATRip [H.264] [MP4|704x528] торрент скачать бесплатно

    Опубликовал: Админ | Дата: 25-05-2018, 05:00 | .torrent скачали: 2

    Разборчивый жених (1993) SATRip [H.264] [MP4|704x528]Производство: Россия/Канал Россия, ТО Экран
    Жанр: Комедия
    Режиссер: Сергей Микаэлян
    Актеры: Александр Лыков, Юлия Меньшова, Анна Матюхина, Александр Блок, Сергей Выборнов

    Описание

    На экране нет ни рокеров, ни наркоманов, ни дискотек. Есть жгучее желание заведующего детским садом встретить настоящую любовь. Настолько жгучее, что найдя ее, он все еще продолжает искать, в результате чего получается не классический треугольник, а любовное трио.Встретившись на вечеринке, Дима и Катя влюбились друг в друга с первого взгляда. Но у Кати есть жених, который увозит ее в далекую Италию. Сменив немыслимое количество поклонниц, Дмитрий понимает, что сердце его принадлежит Кате. Вместе с друзьями он отправляется в круиз на корабле по Средиземноморью с остановкой в Неаполе, где живет его возлюбленная.

    Возраст: 16+ (зрителям, достигшим 16 лет)
    Продолжительность: 01: 36: 11
    Качество видео: SATRip
    Субтитры: отсутствуют
    Видео: AVC/H.264, 704x528, ~1001 Kbps
    Аудио: AAC, 2 ch, 192 Kbps

    Общее
    Полное имя : Z: Разборчивый жених (1993) SATRip.mp4
    Формат : MPEG-4
    Профиль формата : JVT
    Идентификатор кодека : avc1 (avc1/mp42)
    Размер файла : 829 Мбайт
    Продолжительность : 1 ч. 36 м.
    Режим общего битрейта : Переменный
    Общий поток : 1205 Кбит/сек
    Дата кодирования : UTC 2016-05-31 19: 25: 29
    Дата пометки : UTC 2016-05-31 19: 25: 29
    Видео
    Идентификатор : 1
    Формат : AVC
    Формат/Информация : Advanced Video Codec
    Профиль формата : High@L3.1
    Настройки формата : CABAC/2 Ref Frames
    Параметр CABAC формата : Да
    Параметр RefFrames формата : 2 кадра
    Идентификатор кодека : avc1
    Идентификатор кодека/Информация : Advanced Video Coding
    Продолжительность : 1 ч. 36 м.
    Вид битрейта : Переменный
    Битрейт : 1001 Кбит/сек
    Максимальный битрейт : 14, 0 Мбит/сек
    Ширина : 704 пикселя
    Высота : 528 пикселей
    Соотношение сторон : 4: 3
    Режим частоты кадров : Постоянный
    Частота кадров : 25, 000 кадров/сек
    Цветовое пространство : YUV
    Субдискретизация насыщенности : 4: 2: 0
    Битовая глубина : 8 бит
    Тип развёртки : Прогрессивная
    Бит/(Пиксели*Кадры) : 0.108
    Размер потока : 689 Мбайт (83%)
    Язык : English
    Дата кодирования : UTC 2016-05-31 19: 25: 29
    Дата пометки : UTC 2016-05-31 19: 25: 29
    Аудио
    Идентификатор : 2
    Формат : AAC
    Формат/Информация : Advanced Audio Codec
    Профиль формата : LC
    Идентификатор кодека : mp4a-40-2
    Продолжительность : 1 ч. 36 м.
    Продолжительность оригинала : 1 ч. 36 м.
    Вид битрейта : Постоянный
    Битрейт : 192 Кбит/сек
    Каналы : 2 канала
    Расположение каналов : Front: L R
    Частота : 48, 0 КГц
    Частота кадров : 46, 875 кадров/сек (1024 SPF)
    Метод сжатия : С потерями
    Размер потока : 132 Мбайт (16%)
    Размер потока оригинала : 132 Мбайт (16%)
    Язык : English
    Дата кодирования : UTC 2016-05-31 19: 25: 29
    Дата пометки : UTC 2016-05-31 19: 25: 29
    Скриншоты:




    Все одноименные релизы в Клубе
    Время раздачи: С 18: 00 до 23: 00 (до появления первых 3-5 скачавших)


    Разборчивый жених (1993) SATRip [H.264] [MP4|704x528]
    Рейтинг →
     (голосов: 1, оценка 4/5, голосовать можно 1 раз )

    Другие торренты по теме:



      Комментарии (0):

      Информация

      Информация

        Посетители, находящиеся в группе Гости, не могут оставлять комментарии в данной новости.

        ↓ Меню




        ↓ Опрос

        Вы добавили сайт в закладки?
        Да
        Нет


        Top 10 за месяц (КПК и мобильные)