.
Авторизация | Регистрация
Хочешь лучшие торренты? Добавь свой email!
Добавить

Торрент скачать бесплатно

  • support: webmaster@btracker.org
» » Я вернусь к тебе / Bedur (1974) VHSRip [H.264] [MP4 656x480] торрент скачать бесплатно


    Я вернусь к тебе / Bedur (1974) VHSRip [H.264] [MP4 656x480] торрент скачать бесплатно

    Опубликовал: Админ | Дата: 19-05-2018, 05:00 | .torrent скачали: 0

    Я вернусь к тебе / Bedur (1974) VHSRip [H.264] [MP4 656x480]Платформа или формат: MP4 656x480
    Производство: Египет
    Жанр: Мелодрама, Военный
    Режиссер: Надир Галяль
    Актеры: Нагля Фатхи, Махмуд Ясин, Магди Вахбе, Хода Солтан

    Описание

    Это история любви двух молодых людей. Они встретились на улице ночного Каира - рабочий Сабер и Будур, спасающаяся от преследований разъяренной толпы. Девушка рассказала Саберу трогательную историю своей жизни, но после ее ухода становится ясно, что все это ложь, а Будур - воровка. У Сабера пропало удостоверение личности, которое она прихватила вместо кошелька. Вскоре Сабера вызывают в полицейский участок и под его ответственность отдают ему... Будур, которая выдала себя за его сестру. Пораженный Сабер не успевает опомниться, как вместе с ней оказывается на улице. Соседи Сабера были людьми добрыми. Они приняли участие в судьбе Будур, которая решила порвать с прошлым. Постепенно отношения между ней и Сабером перерастают в любовь. Неожиданно Сабера призывают на военную службу. Долгое время от него нет вестей. Будур очень страдает, но ждет его. И Сабер возвращается к ней, чтобы начать вместе новую жизнь.

    Возраст: этот продукт не был классифицирован
    Продолжительность: 01: 18: 50
    Качество видео: VHSRip
    Перевод: Дублированный
    Субтитры: отсутствуют
    Видео: AVC/H.264, 656x480, ~1136 Kbps
    Аудио: AAC, 2 ch, 128 Kbps

    Общее
    Полное имя : Z: Я вернусь к тебе (1974) VHSRip.mp4
    Формат : MPEG-4
    Профиль формата : JVT
    Идентификатор кодека : avc1 (avc1/mp42)
    Размер файла : 720 Мбайт
    Продолжительность : 1 ч. 18 м.
    Режим общего битрейта : Переменный
    Общий поток : 1276 Кбит/сек
    Дата кодирования : UTC 2016-05-31 22: 25: 29
    Дата пометки : UTC 2016-05-31 22: 25: 29
    Видео
    Идентификатор : 1
    Формат : AVC
    Формат/Информация : Advanced Video Codec
    Профиль формата : High@L3.1
    Настройки формата : CABAC/2 Ref Frames
    Параметр CABAC формата : Да
    Параметр RefFrames формата : 2 кадра
    Параметр GOP формата : M=3, N=30
    Идентификатор кодека : avc1
    Идентификатор кодека/Информация : Advanced Video Coding
    Продолжительность : 1 ч. 18 м.
    Вид битрейта : Переменный
    Битрейт : 1136 Кбит/сек
    Максимальный битрейт : 14, 0 Мбит/сек
    Ширина : 656 пикселей
    Высота : 480 пикселей
    Соотношение сторон : 4: 3
    Режим частоты кадров : Постоянный
    Частота кадров : 25, 000 кадров/сек
    Цветовое пространство : YUV
    Субдискретизация насыщенности : 4: 2: 0
    Битовая глубина : 8 бит
    Тип развёртки : Прогрессивная
    Бит/(Пиксели*Кадры) : 0.144
    Размер потока : 641 Мбайт (89%)
    Язык : English
    Дата кодирования : UTC 2016-05-31 22: 25: 29
    Дата пометки : UTC 2016-05-31 22: 25: 29
    Аудио
    Идентификатор : 2
    Формат : AAC
    Формат/Информация : Advanced Audio Codec
    Профиль формата : LC
    Идентификатор кодека : mp4a-40-2
    Продолжительность : 1 ч. 18 м.
    Продолжительность оригинала : 1 ч. 18 м.
    Вид битрейта : Постоянный
    Битрейт : 128 Кбит/сек
    Каналы : 2 канала
    Расположение каналов : Front: L R
    Частота : 48, 0 КГц
    Частота кадров : 46, 875 кадров/сек (1024 SPF)
    Метод сжатия : С потерями
    Размер потока : 72, 2 Мбайт (10%)
    Размер потока оригинала : 72, 2 Мбайт (10%)
    Язык : English
    Дата кодирования : UTC 2016-05-31 22: 25: 29
    Дата пометки : UTC 2016-05-31 22: 25: 29
    Скриншоты:



    Все одноименные релизы в Клубе
    Время раздачи: С 18: 00 до 23: 00 (до появления первых 3-5 скачавших)


    Я вернусь к тебе/Bedur (1974) VHSRip [H.264] [MP4 656x480]
    Рейтинг →
     (голосов: 1, оценка 5/5, голосовать можно 1 раз )

    Другие торренты по теме:

  • Я не вернусь (2014) WEBRip
  • Я не вернусь (2014) WEBRip
  • Бутырка - Вернусь домой (2014) [FLAC (image+.cue)|Lossless]<Шансон>
  • Я сюда больше никогда не вернусь (Люба) (1990) VHSRip скачать через торрент бесплатно
  • Я не вернусь (2014) DVDRip
  • Владимир Захаров и группа Рок-Острова - Я вернусь (2015) [MP3|320 кб / с]<Шансон> скачать через торрент бесплатно
  • Стелла Джанни - Я вернусь в твою ночь (2008) [FLAC|image+.cue]<Шансон, Pop> скачать через торрент бесплатно
  • Даир Славкович | Я вернусь, мама! (1982) [DJVU] скачать через торрент бесплатно


    • Комментарии (0):

      Информация

      Информация

        Посетители, находящиеся в группе Гости, не могут оставлять комментарии в данной новости.

        ↓ Меню




        ↓ Опрос

        Вы добавили сайт в закладки?
        Да
        Нет


        Top 10 за месяц (КПК и мобильные)

        Кукутики: Полная коллекция / (Kukutiki: Full collection) (2015-2018) WEB-DLRip [H.264] (Серии 1-79 из 79 + Караоке версии 1-16 из 16) [MP4|1280x720]

        (скачиваний: 261)
        Тоботы / Tobot (2010) TVRip [H.264] (Сезон 1-2, серии 1-57 из ) [MP4|720x408]

        (скачиваний: 160)
        Garmin: Дороги России Топо 6.27 [Ru]

        (скачиваний: 139)
        Garmin: City Navigator Russia NTU 2019.10 - HERE [Ru]

        (скачиваний: 130)
        Карты для iGO Europe (Primo, NextGen, Becker и т.д.) 2018.02.24 [Ru / Multi]

        (скачиваний: 112)
        Сборка iGO Primo NextGen 9.19.1.484935 WinCE [Ru / Multi] - навигационный программный комплекс для устройств с WinCE скачать через торрент бесплатно

        (скачиваний: 104)
        NaviTel / Навител Навигатор 9.8.187 [Ru / Multi] (Windows CE)

        (скачиваний: 104)
        Альтернативные скины для Навител v9.8.2 / 9.8.3 / 9.8.19 [Ru]

        (скачиваний: 82)
        Три медведя: Полная коллекция / (The three bears: Full collection) (2016-2018) WEB-DLRip [H.264] (Серии 1-32 из 32 + 1-14 из 14 Караоке версий) [MP4|1280x720]

        (скачиваний: 69)
        Прошивка Android KitKat 4.4.2 (Официальное обновление 01010 Europe (Android 4.4.2) для Alcatel One Touch Idol X+ (04.09.2014) <Ru>) скачать через торрент бесплатно

        (скачиваний: 55)