.
Авторизация | Регистрация
Хочешь лучшие торренты? Добавь свой email!
Добавить

Торрент скачать бесплатно

  • support: webmaster@btracker.org
» » Чёрная Пантера / Black Panther (2018) HDRip [H.264] [MP4|1920x804] торрент скачать бесплатно


    Чёрная Пантера / Black Panther (2018) HDRip [H.264] [MP4|1920x804] торрент скачать бесплатно

    Опубликовал: Админ | Дата: 13-05-2018, 05:00 | .torrent скачали: 3

    Чёрная Пантера / Black Panther (2018) HDRip [H.264] [MP4|1920x804]Производство: США
    Жанр: Фантастика, Боевик, Приключения
    Режиссер: Райан Куглер
    Продюсер: Виктория Алонсо, Джеффри Чернов, Луис Д’Эспозито
    Актеры: Чэдвик Боузмэн, Майкл Б. Джордан, Лупита Нионго, Данай Джекесай Гурира, Мартин Фриман, Дэниэл Калуя, Летишиа Райт, Уинстон Дьюк, Стерлинг К. Браун, Анджела Бассетт

    Описание

    С первого взгляда можно решить, что Ваканда — обычная территория дикой Африки, но это не так. Здесь, в недрах пустынных земель, скрываются залежи уникального металла, способного поглощать вибрацию. Многие пытались добраться до него, разоряя всё на своём пути и принося смерть аборигенам, но каждый раз таинственный дух саванны — Чёрная Пантера — вставал на защиту угнетённых. Спустя много лет беда снова приходит в Ваканду, и в этот раз враг заручился поддержкой современных технологий. Когда шансов почти не остаётся, Т`Чалла, молодой принц Ваканды, узнаёт, что именно ему предстоит возродить легенду и продолжить вечную борьбу, надев маску Чёрной Пантеры.

    Возраст: 16+ (зрителям, достигшим 16 лет)
    Рейтинг MPAA: PG-13 (детям до 13 лет просмотр нежелателен)
    Дата мировой премьеры: 29 января 2018
    Дата российской премьеры: 26 февраля 2018
    Продолжительность: 02: 14: 44
    Качество видео: HDRip
    Перевод: Дублированный (iTunes)
    Субтитры: Русские (форсированные, полные), Английские (полные)
    Видео: AVC/H.264, 1920x804, ~1958 Kbps
    Аудио: AAC, 6 ch, ~384 Kbps

    Общее
    Полное имя : E: Download3Чёрная Пантера 2018 1080p.mp4
    Формат : MPEG-4
    Профиль формата : Base Media
    Идентификатор кодека : isom (isom/avc1/iso6)
    Размер файла : 2, 20 Гбайт
    Продолжительность : 2 ч. 14 м.
    Режим общего битрейта : Переменный
    Общий поток : 2343 Кбит/сек
    Дата кодирования : UTC 2018-05-11 10: 58: 51
    Дата пометки : UTC 2018-05-11 10: 58: 51
    Видео
    Идентификатор : 1
    Формат : AVC
    Формат/Информация : Advanced Video Codec
    Профиль формата : High@L4
    Настройки формата : CABAC/2 Ref Frames
    Параметр CABAC формата : Да
    Параметр RefFrames формата : 2 кадра
    Идентификатор кодека : avc1
    Идентификатор кодека/Информация : Advanced Video Coding
    Продолжительность : 2 ч. 14 м.
    Битрейт : 1958 Кбит/сек
    Максимальный битрейт : 8458 Кбит/сек
    Ширина : 1920 пикселей
    Высота : 804 пикселя
    Соотношение сторон : 2, 40: 1
    Режим частоты кадров : Постоянный
    Частота кадров : 23, 976 (24000/1001) кадра/сек
    Цветовое пространство : YUV
    Субдискретизация насыщенности : 4: 2: 0
    Битовая глубина : 8 бит
    Тип развёртки : Прогрессивная
    Бит/(Пиксели*Кадры) : 0.053
    Размер потока : 1, 84 Гбайт (83%)
    Дата кодирования : UTC 2018-05-11 10: 58: 51
    Дата пометки : UTC 2018-05-11 11: 03: 05
    Цветовой диапазон : Limited
    Основные цвета : BT.709
    Характеристики трансфера : BT.709
    Коэффициенты матрицы : BT.709
    Аудио
    Идентификатор : 2
    Формат : AAC
    Формат/Информация : Advanced Audio Codec
    Профиль формата : LC
    Идентификатор кодека : mp4a-40-2
    Продолжительность : 2 ч. 14 м.
    Вид битрейта : Переменный
    Битрейт : 384 Кбит/сек
    Максимальный битрейт : 434 Кбит/сек
    Каналы : 2 канала
    Channel(s)_Original : 6 каналов
    Расположение каналов : Front: L C R, Side: L R, LFE
    Частота : 48, 0 КГц
    Частота кадров : 46, 875 кадров/сек (1024 SPF)
    Метод сжатия : С потерями
    Размер потока : 370 Мбайт (16%)
    Заголовок : Дублированный (iTunes)
    Язык : Russian
    Дата кодирования : UTC 2018-05-11 11: 01: 58
    Дата пометки : UTC 2018-05-11 11: 03: 05
    Текст #1
    Идентификатор : 3
    Формат : Timed Text
    Идентификатор кодека : tx3g
    Продолжительность : 2 ч. 14 м.
    Вид битрейта : Переменный
    Битрейт : 2 бит/сек
    Размер потока : 2, 44 Кбайт (0%)
    Заголовок : Forced
    Язык : Russian
    Forced : Нет
    Дата кодирования : UTC 2018-05-11 11: 03: 04
    Дата пометки : UTC 2018-05-11 11: 03: 05
    Текст #2
    Идентификатор : 4
    Формат : Timed Text
    Идентификатор кодека : tx3g
    Продолжительность : 2 ч. 14 м.
    Вид битрейта : Переменный
    Битрейт : 87 бит/сек
    Размер потока : 85, 8 Кбайт (0%)
    Заголовок : Full
    Язык : Russian
    Forced : Нет
    Дата кодирования : UTC 2018-05-11 11: 03: 04
    Дата пометки : UTC 2018-05-11 11: 03: 05
    Текст #3
    Идентификатор : 5
    Формат : Timed Text
    Идентификатор кодека : tx3g
    Продолжительность : 2 ч. 14 м.
    Вид битрейта : Переменный
    Битрейт : 55 бит/сек
    Размер потока : 53, 7 Кбайт (0%)
    Заголовок : Full
    Язык : English
    Forced : Нет
    Дата кодирования : UTC 2018-05-11 11: 03: 05
    Дата пометки : UTC 2018-05-11 11: 03: 05
    Скриншоты:


    Все одноименные релизы в Клубе
    Время раздачи: с 9: 00 до 22: 00 (до появления первых 3-5 скачавших)


    Чёрная Пантера/Black Panther (2018) HDRip [H.264] [MP4|1920x804]
    Рейтинг →
     (голосов: 1, оценка 4/5, голосовать можно 1 раз )

    Другие торренты по теме:

  • Чёрная Пантера / Black Panther (2018) TS [H.264 / 720p-LQ] [MVO, AD]
  • Ludwig Goransson - Black Panther / Чёрная пантера (Original Motion Picture Soundtrack) (2018) [FLAC|Lossless|tracks]<Soundtrack>
  • Ludwig Goransson - Чёрная пантера / Black Panther (Original Motion Picture Soundtrack) (2018) [MP3|320 Kbps] <Soundtrack>
  • Чёрная Пантера / Black Panther (2018) BDRip [H.264 / 1080p] [MVO] [PR, AD]
  • Чёрная Пантера / Black Panther (2018) BDRip [H.264 / 1080p] [EN / EN Sub] [PR]
  • Чёрная Пантера / Black Panther (2018) BDRemux [H.264 / 1080p] [EN / EN, Fr, Sp Sub]
  • Чёрная Пантера / Black Panther (2018) BDRip [H.265 / 1080p-LQ] [UKR, EN / RU, EN Sub]
  • Чёрная Пантера / Black Panther (2018) HDRip [UKR, ENG]


    • Комментарии (0):

      Информация

      Информация

        Посетители, находящиеся в группе Гости, не могут оставлять комментарии в данной новости.

        ↓ Меню




        ↓ Опрос

        Вы добавили сайт в закладки?
        Да
        Нет


        Top 10 за месяц (КПК и мобильные)