.
Авторизация | Регистрация
Хочешь лучшие торренты? Добавь свой email!
Добавить

Торрент скачать бесплатно

  • support: webmaster@btracker.org
» » Колония / Colony (2018) WEB-DLRip [H.264] (сезон 3, серии 1 из 13) LostFilm [MP4|1280x720] (обновляемая) торрент скачать бесплатно


    Колония / Colony (2018) WEB-DLRip [H.264] (сезон 3, серии 1 из 13) LostFilm [MP4|1280x720] (обновляемая) торрент скачать бесплатно

    Опубликовал: Админ | Дата: 10-05-2018, 05:00 | .torrent скачали: 1

    Колония / Colony (2018) WEB-DLRip [H.264] (сезон 3, серии 1 из 13) LostFilm [MP4|1280x720] (обновляемая)Производство: США/Legendary Television
    Жанр: фантастика
    Режиссер: Хуан Хосе Кампанелла
    Актеры: Джош Холлоуэй, Сара Уэйн Кэллис, Питер Джекобсон, Аманда Ригетти, Алекс Нюстадтер, Изабелла Крамп, Гонсало Менендес, Элли Уокер, Либэ Барер, Д.Дж. Бликенстафф и др.

    Описание

    В недалёком будущем семья пытается спасти жителей оккупированного Лос-Анджелеса. Бывший агент ФБР Уилл Боумэн и его супруга Кейти пробуют вернуть сына. Уилл готов работать на новое правительство, тогда как многие в городе поддерживают повстанцев. Лидер режима Прокси Снайдер предлагает Уиллу сделку, которая изменит их жизнь и заставит семью пойти на большой риск.

    Продолжительность: ~00: 42: 00 серия
    Качество видео: WEB-DLRip
    Перевод: Многоголосый закадровый, профессиональный -LostFilm
    Реклама: присутствует заставка и логотип LostFilm
    Видео: AVC/H.264, 1280x720 (16: 9), ~4000 Kbps
    Аудио: AAC, 2 ch, 265 Kbps - русский (MVO)

    Полное имя : L: Colony_s3_WEB-DLRip720p_x264_LostFilm_NNM-CLUBColony.S03E01.720p.WEB.rus.LostFilm.TV.mp4
    Формат : MPEG-4
    Профиль формата : Base Media
    Идентификатор кодека : isom (isom)
    Размер файла : 1, 24 Гбайт
    Продолжительность : 41 м.
    Режим общего битрейта : Переменный
    Общий поток : 4273 Кбит/сек
    Коллекция : Колония
    Сезон : 3
    Альбом : Колония, Сезон 3
    Альбом/Исполнитель : Колония
    Часть : 1
    Часть/Положение : 3
    Трек : Маквис
    Трек/Положение : 1
    Исполнитель : Колония
    Жанр : Sci-Fi Fantasy
    Тип содержимого : TV Show
    Дата записи : 2018
    Дата кодирования : UTC 2018-05-03 21: 22: 16
    Дата пометки : UTC 2018-05-03 21: 22: 16
    Программа кодирования : LostCoder
    Авторское право : LostFilm.TV (c)
    Обложка : Yes
    Примечание : Действие сериала разворачивается в недалеком будущем в оккупированном инопланетными захватчиками Лос-Анджелесе.
    Part_ID : 301
    Видео
    Идентификатор : 1
    Формат : AVC
    Формат/Информация : Advanced Video Codec
    Профиль формата : High@L4.1
    Параметр CABAC формата : Да
    Параметр ReFrames формата : 4 кадра
    Идентификатор кодека : avc1
    Идентификатор кодека/Информация : Advanced Video Coding
    Продолжительность : 41 м.
    Битрейт : 4000 Кбит/сек
    Максимальный битрейт : 19, 4 Мбит/сек
    Ширина : 1280 пикселей
    Высота : 720 пикселей
    Соотношение сторон : 16: 9
    Режим частоты кадров : Постоянный
    Частота кадров : 23, 976 кадра/сек
    Частота кадров в оригинале : 23, 976 кадра/сек
    Цветовое пространство : YUV
    Субдискретизация насыщенности : 4: 2: 0
    Битовая глубина : 8 бит
    Тип развёртки : Прогрессивная
    Бит/(Пиксели*Кадры) : 0.181
    Размер потока : 1, 16 Гбайт (94%)
    Заголовок : Imported with GPAC 0.4.6-DEV (internal rev. 5)
    Библиотека кодирования : x264 core 112 r1834 a51816a
    Настройки программы : cabac=1/ref=4/deblock=1: -3: -2/analyse=0x3: 0x113/me=hex/subme=7/psy=1/psy_rd=1.00: 0.00/mixed_ref=1/me_range=16/chroma_me=1/trellis=1/8x8dct=1/cqm=0/deadzone=21, 11/fast_pskip=1/chroma_qp_offset=-2/threads=12/sliced_threads=0/nr=0/decimate=1/interlaced=0/constrained_intra=0/bframes=5/b_pyramid=2/b_adapt=1/b_bias=0/direct=1/weightb=1/open_gop=0/weightp=2/keyint=250/keyint_min=25/scenecut=40/intra_refresh=0/rc_lookahead=40/rc=2pass/mbtree=1/bitrate=4000/ratetol=1.0/qcomp=0.60/qpmin=0/qpmax=51/qpstep=4/cplxblur=20.0/qblur=0.5/vbv_maxrate=10000/vbv_bufsize=256000/ip_ratio=1.40/aq=1: 1.00/nal_hrd=none
    Аудио
    Идентификатор : 2
    Формат : AAC
    Формат/Информация : Advanced Audio Codec
    Профиль формата : LC
    Идентификатор кодека : 40
    Продолжительность : 41 м.
    Вид битрейта : Переменный
    Битрейт : 265 Кбит/сек
    Максимальный битрейт : 339 Кбит/сек
    Каналы : 2 канала
    Расположение каналов : Front: L R
    Частота : 48, 0 КГц
    Частота кадров : 46, 875 кадров/сек
    Метод сжатия : С потерями
    Размер потока : 79, 7 Мбайт (6%)


    Колония/Colony (2018) WEB-DLRip [H.264] (сезон 3, серии 1 из 13) LostFilm [MP4|1280x720] (обновляемая)
    Рейтинг →
     (голосов: 1, оценка 4/5, голосовать можно 1 раз )

    Другие торренты по теме:

  • Колония / Colony (2015) WEBRip (сезон 1, серии 1 из 10) BaibaKo (обновляемая) скачать через торрент бесплатно
  • Колония / Colony (2016) WEBRip [H.264 / 720p-LQ] (сезон 1, серия 1 из 10) (BaibaKo) (обновляемая) скачать через торрент бесплатно
  • Колония / Colony (2016) WEBRip (сезон 1, серии 1 из 10) NewStudio (обновляемая) скачать через торрент бесплатно
  • Колония / Colony (2016) WEBRip (сезон 1, серии 1 из 10) OMSKBIRD records (обновляемая) скачать через торрент бесплатно
  • Колония / Colony (2016) WEBRip [H.264 / 720p-LQ] (сезон 1, серии 1 из 10) OMSKBIRD records (обновляемая) скачать через торрент бесплатно
  • Колония / Colony (2016) WEB-DLRip (сезон 1, серии 1 из 10) LostFilm (обновляемая) скачать через торрент бесплатно
  • Колония / Colony (2016) WEB-DL [H.264] (сезон 1, серии 1-2 из 10) (LostFilm) [MP4|1280x720] (обновляемая)
  • Колония / Colony (2016) WEB-DLRip [H.264] (сезон 1, серии 1-3 из 10) BaibaKo [MP4|720x400]


    • Комментарии (0):

      Информация

      Информация

        Посетители, находящиеся в группе Гости, не могут оставлять комментарии в данной новости.

        ↓ Меню




        ↓ Опрос

        Вы добавили сайт в закладки?
        Да
        Нет


        Top 10 за месяц (КПК и мобильные)