.
Авторизация | Регистрация
Хочешь лучшие торренты? Добавь свой email!
Добавить

Торрент скачать бесплатно

  • support: webmaster@btracker.org
» » Всадник по имени смерть (2004) WEB-DLRip [H.264] [MP4|1808x1072] торрент скачать бесплатно


    Всадник по имени смерть (2004) WEB-DLRip [H.264] [MP4|1808x1072] торрент скачать бесплатно

    Опубликовал: Админ | Дата: 10-05-2018, 05:00 | .torrent скачали: 0

    Всадник по имени смерть (2004) WEB-DLRip [H.264] [MP4|1808x1072]Производство: Россия
    Жанр: Драма
    Режиссер: Карен Шахназаров
    Актеры: Андрей Панин, Юлия Яновская, Ксения Раппопорт, Артем Семакин, Ростислав Бершауэр, Анастасия Макеева, Алексей Казаков, Дмитрий Дюжев, Валерий Сторожик, Василий Зотов

    Описание

    Россия начала XX века. Совершен ряд кровавых террористических актов, направленных против высоких должностных лиц государства. Главная цель террористов — убийство Великого князя Сергея Александровича. Покушение готовят члены так называемой Боевой организации — ее руководитель Жорж...

    Возраст: 16+ (зрителям, достигшим 16 лет)
    Релиз от: Алехаndr
    Продолжительность: 01: 41: 55
    Качество видео: WEB-DLRip
    Субтитры: Отсутствуют
    Видео: AVC/H.264, 1808x1072, ~4000 Kbps
    Аудио: AAC, 2 ch, 192 Kbps

    Общее
    Полное имя : G: Всадник по имени смерть (2004).by.Алехаndr.mp4
    Формат : MPEG-4
    Профиль формата : Base Media
    Идентификатор кодека : isom (isom/iso2/avc1/mp41)
    Размер файла : 2, 99 Гбайт
    Продолжительность : 1 ч. 41 м.
    Общий поток : 4200 Кбит/сек
    Программа кодирования : Lavf57.56.100
    Видео
    Идентификатор : 1
    Формат : AVC
    Формат/Информация : Advanced Video Codec
    Профиль формата : High@L4
    Настройки формата : CABAC/3 Ref Frames
    Параметр CABAC формата : Да
    Параметр RefFrames формата : 3 кадра
    Идентификатор кодека : avc1
    Идентификатор кодека/Информация : Advanced Video Coding
    Продолжительность : 1 ч. 41 м.
    Битрейт : 4000 Кбит/сек
    Ширина : 1808 пикселей
    Высота : 1072 пикселя
    Соотношение сторон : 5: 3
    Режим частоты кадров : Постоянный
    Частота кадров : 25, 000 кадров/сек
    Цветовое пространство : YUV
    Субдискретизация насыщенности : 4: 2: 0
    Битовая глубина : 8 бит
    Тип развёртки : Прогрессивная
    Бит/(Пиксели*Кадры) : 0.083
    Размер потока : 2, 85 Гбайт (95%)
    Библиотека кодирования : x264 core 142 r2389 956c8d8
    Настройки программы : cabac=1/ref=3/deblock=1: 0: 0/analyse=0x3: 0x133/me=umh/subme=7/psy=1/psy_rd=1.00: 0.00/mixed_ref=1/me_range=32/chroma_me=1/trellis=2/8x8dct=1/cqm=0/deadzone=21, 11/fast_pskip=1/chroma_qp_offset=-2/threads=12/lookahead_threads=2/sliced_threads=0/nr=0/decimate=1/interlaced=0/bluray_compat=0/constrained_intra=0/bframes=0/weightp=0/keyint=75/keyint_min=26/scenecut=40/intra_refresh=0/rc_lookahead=50/rc=2pass/mbtree=0/bitrate=4000/ratetol=1.0/qcomp=0.20/qpmin=10/qpmax=51/qpstep=4/cplxblur=20.0/qblur=0.5/vbv_maxrate=5000/vbv_bufsize=5000/nal_hrd=none/filler=0/ip_ratio=1.40/aq=1: 1.00
    Цветовой диапазон : Limited
    Основные цвета : BT.709
    Характеристики трансфера : BT.709
    Коэффициенты матрицы : BT.709
    Аудио
    Идентификатор : 2
    Формат : AAC
    Формат/Информация : Advanced Audio Codec
    Профиль формата : LC
    Идентификатор кодека : mp4a-40-2
    Продолжительность : 1 ч. 41 м.
    Вид битрейта : Постоянный
    Битрейт : 192 Кбит/сек
    Каналы : 2 канала
    Расположение каналов : Front: L R
    Частота : 44, 1 КГц
    Частота кадров : 43, 066 кадра/сек (1024 SPF)
    Метод сжатия : С потерями
    Размер потока : 140 Мбайт (5%)
    Default : Да
    AlternateGroup/String : 1
    Скриншоты:


    Все одноименные релизы в Клубе
    Время раздачи: 24/7 (круглосуточно) (до появления первых 3-5 скачавших)


    Всадник по имени смерть (2004) WEB-DLRip [H.264] [MP4|1808x1072]
    Рейтинг →
     (голосов: 1, оценка 3/5, голосовать можно 1 раз )

    Другие торренты по теме:

  • Durarara!!x2 Shou / Всадник без головы!! 2 (2015, TV, 1 из 12 эпизодов) HDTV 1080p Rus скачать через торрент бесплатно
  • Роберт Маккаммон | Всадник авангарда (2015) [FB2, EPUB] скачать через торрент бесплатно
  • Александр Пушкин - Медный всадник (1979) SATRip скачать через торрент бесплатно
  • Александр Сергеевич Пушкин | Медный всадник (1923) [DJVU] скачать через торрент бесплатно
  • Всадник с молнией в руке (1975) SATRip [H.264]
  • Владимир Малик | Чёрный всадник (2016) [MP3]
  • Сергей Алексеев | Грозный всадник (2016) [MP3]
  • Электрический всадник / The Electric Horseman (1979) DVDRip [H.264]


    • Комментарии (0):

      Информация

      Информация

        Посетители, находящиеся в группе Гости, не могут оставлять комментарии в данной новости.

        ↓ Меню




        ↓ Опрос

        Вы добавили сайт в закладки?
        Да
        Нет


        Top 10 за месяц (КПК и мобильные)