.
Авторизация | Регистрация
Хочешь лучшие торренты? Добавь свой email!
Добавить

Торрент скачать бесплатно

  • support: webmaster@btracker.org
» » Там, где кончается асфальт / A Estrada (1956) TVRip [H.264] [MP4|696x544] торрент скачать бесплатно


    Там, где кончается асфальт / A Estrada (1956) TVRip [H.264] [MP4|696x544] торрент скачать бесплатно

    Опубликовал: Админ | Дата: 3-05-2018, 05:00 | .torrent скачали: 1

    Там, где кончается асфальт / A Estrada (1956) TVRip [H.264] [MP4|696x544]Производство: Бразилия
    Жанр: Драма
    Режиссер: Освалду Сампайу
    Актеры: Пагану Собриньу, Миро Агнес, Серни Фонотура, Вера Сампайу, Лоуренсу Феррейра, Миро Серни, Аньес Фонтора, Милтон Мораес, Вера Сампайю, Пагано Собринью, Эуженио Кушнет, Энрикан, Адониран Барбоза, Рикардо Кампос

    Описание

    Это простой рассказ о водителях грузовых машин, о безвестных героях, которые и днем, и ночью, и в солнце, и в дождь по труднопроходимым дорогам Бразилии перевозят грузы с запада на восток, с севера на юг и связывают самые отдаленные города и посёлки.

    Возраст: этот продукт не был классифицирован
    Продолжительность: 01: 14: 27
    Качество видео: TVRip
    Перевод: Дублированный
    Субтитры: отсутствуют
    Видео: AVC/H.264, 696x544, ~2045 Kbps
    Аудио: AAC, 2 ch, 160 Kbps

    Общее
    Полное имя : X: Там, где кончается асфальт (1956) TVRip.mp4
    Формат : MPEG-4
    Профиль формата : JVT
    Идентификатор кодека : avc1 (avc1/mp42)
    Размер файла : 1, 15 Гбайт
    Продолжительность : 1 ч. 14 м.
    Режим общего битрейта : Переменный
    Общий поток : 2218 Кбит/сек
    Дата кодирования : UTC 2016-05-31 21: 25: 05
    Дата пометки : UTC 2016-05-31 21: 25: 05
    Видео
    Идентификатор : 1
    Формат : AVC
    Формат/Информация : Advanced Video Codec
    Профиль формата : High@L3.1
    Настройки формата : CABAC/2 Ref Frames
    Параметр CABAC формата : Да
    Параметр RefFrames формата : 2 кадра
    Параметр GOP формата : M=3, N=30
    Идентификатор кодека : avc1
    Идентификатор кодека/Информация : Advanced Video Coding
    Продолжительность : 1 ч. 14 м.
    Вид битрейта : Переменный
    Битрейт : 2045 Кбит/сек
    Максимальный битрейт : 17, 0 Мбит/сек
    Ширина : 696 пикселей
    Высота : 544 пикселя
    Соотношение сторон : 1, 279
    Режим частоты кадров : Постоянный
    Частота кадров : 25, 000 кадров/сек
    Цветовое пространство : YUV
    Субдискретизация насыщенности : 4: 2: 0
    Битовая глубина : 8 бит
    Тип развёртки : Прогрессивная
    Бит/(Пиксели*Кадры) : 0.216
    Размер потока : 1, 06 Гбайт (92%)
    Язык : English
    Дата кодирования : UTC 2016-05-31 21: 25: 05
    Дата пометки : UTC 2016-05-31 21: 25: 05
    Аудио
    Идентификатор : 2
    Формат : AAC
    Формат/Информация : Advanced Audio Codec
    Профиль формата : LC
    Идентификатор кодека : mp4a-40-2
    Продолжительность : 1 ч. 14 м.
    Продолжительность оригинала : 1 ч. 14 м.
    Вид битрейта : Постоянный
    Битрейт : 160 Кбит/сек
    Каналы : 2 канала
    Расположение каналов : Front: L R
    Частота : 48, 0 КГц
    Частота кадров : 46, 875 кадров/сек (1024 SPF)
    Метод сжатия : С потерями
    Размер потока : 85, 2 Мбайт (7%)
    Размер потока оригинала : 85, 2 Мбайт (7%)
    Язык : English
    Дата кодирования : UTC 2016-05-31 21: 25: 05
    Дата пометки : UTC 2016-05-31 21: 25: 05


    Там, где кончается асфальт/A Estrada (1956) TVRip [H.264] [MP4|696x544]
    Рейтинг →
     (голосов: 1, оценка 4/5, голосовать можно 1 раз )

    Другие торренты по теме:

  • В. П. Торчилин | Там, где кончается наука (1991) [DJVU] скачать через торрент бесплатно
  • Не кончается синее море / Смех и грех (2013) SATRip (серии 1-8 из 8) скачать через торрент бесплатно
  • Грэм Джойс | Там, где кончается волшебство (2016) [FB2]
  • Патрик Несс | Там, где кончается море [сборник] (2017) [FB2]
  • Сергей Зверев | Война кончается войной (2017) [FB2]
  • Сергей Лукьяненко и др. | Понедельник не кончается никогда [сборник] (2018) [FB2]


    • Комментарии (0):

      Информация

      Информация

        Посетители, находящиеся в группе Гости, не могут оставлять комментарии в данной новости.

        ↓ Меню




        ↓ Опрос

        Вы добавили сайт в закладки?
        Да
        Нет


        Top 10 за месяц (КПК и мобильные)