.
Авторизация | Регистрация
Хочешь лучшие торренты? Добавь свой email!
Добавить

Торрент скачать бесплатно

  • support: webmaster@btracker.org
» » Терминал / The Terminal (2004) HDRip [H.264] [MP4|1280x694] торрент скачать бесплатно


    Терминал / The Terminal (2004) HDRip [H.264] [MP4|1280x694] торрент скачать бесплатно

    Опубликовал: Админ | Дата: 3-05-2018, 05:00 | .torrent скачали: 2

    Терминал / The Terminal (2004) HDRip [H.264] [MP4|1280x694]Производство: США
    Жанр: Драма, Мелодрама, Комедия
    Режиссер: Стивен Спилберг
    Продюсер: Лори МакДональд, Уолтер Ф. Паркс, Стивен Спилберг
    Актеры: Том Хэнкс, Кэтрин Зета-Джонс, Стэнли Туччи, Чи МакБрайд, Диего Луна, Бэрри Шебака Хенли, Кумар Паллана, Зои Салдана, Эдди Джонс, Джуд Чикколелла, Кори Рейнольдс, Гильермо Диас, Рини Белл, Стивен Мендел, Валерий Николаев, Майкл Нури, Ана Мария Квинтана, Боб Моррисей, Саша Спилберг, Сьюзэн Слоум, Мик Скриба, Джим Ишида, Карлис Бурк, Стефон Фуллер, Дэн Финнерти

    Описание

    Фильм рассказывает историю Виктора Наворски, отправившегося в Нью-Йорк из Восточной Европы. Пока Виктор летел в самолете, на его родине произошел государственный переворот. Оказавшись в международном аэропорту имени Джона Кеннеди с паспортом ниоткуда, он не имеет права въехать в Соединенные Штаты и должен коротать свои дни и ночи на скамейках у выхода 67, пока война в его родной стране не закончится.

    Возраст: 12+ (зрителям, достигшим 12 лет)
    Рейтинг MPAA: PG-13 (детям до 13 лет просмотр нежелателен)
    Дата мировой премьеры: 9 июня 2004
    Дата российской премьеры: 14 октября 2004
    Продолжительность: 02: 08: 45
    Качество видео: HDRip
    Перевод: Дублированный (Лицензия)
    Субтитры: Русские (полные), Английские (полные)
    Видео: AVC/H.264, 1280x694, ~1941 Kbps
    Аудио: AAC, 2 ch, ~129 Kbps

    Общее
    Полное имя : E: Download3Терминал 2004 720p.mp4
    Формат : MPEG-4
    Профиль формата : Base Media
    Идентификатор кодека : isom (isom/avc1)
    Размер файла : 1, 86 Гбайт
    Продолжительность : 2 ч. 8 м.
    Режим общего битрейта : Переменный
    Общий поток : 2072 Кбит/сек
    Дата кодирования : UTC 2018-04-24 13: 51: 53
    Дата пометки : UTC 2018-04-24 13: 51: 53
    Видео
    Идентификатор : 1
    Формат : AVC
    Формат/Информация : Advanced Video Codec
    Профиль формата : High@L3.1
    Настройки формата : CABAC/1 Ref Frames
    Параметр CABAC формата : Да
    Параметр RefFrames формата : 1 кадр
    Идентификатор кодека : avc1
    Идентификатор кодека/Информация : Advanced Video Coding
    Продолжительность : 2 ч. 8 м.
    Битрейт : 1941 Кбит/сек
    Максимальный битрейт : 8536 Кбит/сек
    Ширина : 1280 пикселей
    Высота : 694 пикселя
    Соотношение сторон : 1, 85: 1
    Режим частоты кадров : Постоянный
    Частота кадров : 23, 976 (24000/1001) кадра/сек
    Цветовое пространство : YUV
    Субдискретизация насыщенности : 4: 2: 0
    Битовая глубина : 8 бит
    Тип развёртки : Прогрессивная
    Бит/(Пиксели*Кадры) : 0.091
    Размер потока : 1, 75 Гбайт (94%)
    Дата кодирования : UTC 2018-04-24 13: 51: 53
    Дата пометки : UTC 2018-04-24 13: 53: 42
    Цветовой диапазон : Limited
    Основные цвета : BT.709
    Характеристики трансфера : BT.709
    Коэффициенты матрицы : BT.709
    Аудио
    Идентификатор : 2
    Формат : AAC
    Формат/Информация : Advanced Audio Codec
    Профиль формата : LC
    Идентификатор кодека : mp4a-40-2
    Продолжительность : 2 ч. 8 м.
    Вид битрейта : Переменный
    Битрейт : 129 Кбит/сек
    Максимальный битрейт : 134 Кбит/сек
    Каналы : 2 канала
    Расположение каналов : Front: L R
    Частота : 48, 0 КГц
    Частота кадров : 46, 875 кадров/сек (1024 SPF)
    Метод сжатия : С потерями
    Размер потока : 118 Мбайт (6%)
    Заголовок : Дублированный (Лицензия)
    Язык : Russian
    Дата кодирования : UTC 2018-04-24 13: 53: 24
    Дата пометки : UTC 2018-04-24 13: 53: 42
    Текст #1
    Идентификатор : 3
    Формат : Timed Text
    Идентификатор кодека : tx3g
    Продолжительность : 2 ч. 2 м.
    Вид битрейта : Переменный
    Битрейт : 102 бит/сек
    Размер потока : 91, 7 Кбайт (0%)
    Заголовок : Full
    Язык : Russian
    Forced : Нет
    Дата кодирования : UTC 2018-04-24 13: 53: 41
    Дата пометки : UTC 2018-04-24 13: 53: 42
    Текст #2
    Идентификатор : 4
    Формат : Timed Text
    Идентификатор кодека : tx3g
    Продолжительность : 2 ч. 0 м.
    Вид битрейта : Переменный
    Битрейт : 64 бит/сек
    Размер потока : 56, 3 Кбайт (0%)
    Заголовок : Full
    Язык : English
    Forced : Нет
    Дата кодирования : UTC 2018-04-24 13: 53: 41
    Дата пометки : UTC 2018-04-24 13: 53: 42
    Скриншоты:


    Все одноименные релизы в Клубе
    Время раздачи: с 8: 00 до 20: 00 (до появления первых 3-5 скачавших)


    Терминал/The Terminal (2004) HDRip [H.264] [MP4|1280x694]
    Рейтинг →
     (голосов: 1, оценка 3/5, голосовать можно 1 раз )

    Другие торренты по теме:

  • Терминал / The Terminal (2004) BDRip [H.264 / 1080p] скачать через торрент бесплатно
  • Терминал / The Terminal (2004) BDRip [H.265 / 1080p-LQ]
  • Терминал / The Terminal (2004) HDRip [H.264] [MP4|1920x1040]


    • Комментарии (0):

      Информация

      Информация

        Посетители, находящиеся в группе Гости, не могут оставлять комментарии в данной новости.

        ↓ Меню




        ↓ Опрос

        Вы добавили сайт в закладки?
        Да
        Нет


        Top 10 за месяц (КПК и мобильные)