.
Авторизация | Регистрация
Хочешь лучшие торренты? Добавь свой email!
Добавить

Торрент скачать бесплатно

  • support: webmaster@btracker.org
» » Игра / The Game (1997) HDRip [H.264] [MP4|1920x800] торрент скачать бесплатно


    Игра / The Game (1997) HDRip [H.264] [MP4|1920x800] торрент скачать бесплатно

    Опубликовал: Админ | Дата: 2-05-2018, 05:00 | .torrent скачали: 1

    Игра / The Game (1997) HDRip [H.264] [MP4|1920x800]Производство: США
    Жанр: Триллер, Драма, Детектив, Приключения
    Режиссер: Дэвид Финчер
    Продюсер: Сиан Чаффин, Стив Голин, Джон Бренкето
    Актеры: Майкл Дуглас, Шон Пенн, Дебора Кара Ангер, Джеймс Ребхорн, Питер Донат, Кэррол Бейкер, Анна Катарина, Армин Мюллер-Шталь, Чарльз Мартине, Скотт Хантер МакГуайр

    Описание

    Николас Ван Ортон — само воплощение успеха. Он преуспевает, он невозмутим и спокоен, привык держать любую ситуацию под контролем. На день рождения Николас получает необычный подарок — билет для участия в Игре.
    Ему обещают, что игра вернет яркие чувства, позволит ощутить вкус и остроту жизни. Вступив в игру, Николас начинает осознавать, что это игра всерьез, игра не на жизнь, а на смерть.

    Возраст: 16+ (зрителям, достигшим 16 лет)
    Рейтинг MPAA: R (лицам до 17 лет обязательно присутствие взрослого)
    Дата мировой премьеры: 3 сентября 1997
    Продолжительность: 02: 08: 48
    Качество видео: HDRip
    Перевод: Дублированный (Лицензия)
    Субтитры: Русские (полные), Английские (полные)
    Видео: AVC/H.264, 1920x800, ~1609 Kbps
    Аудио: AAC, 6 ch, ~384 Kbps

    Общее
    Полное имя : E: Download3Игра 1997 1080p.mp4
    Формат : MPEG-4
    Профиль формата : Base Media
    Идентификатор кодека : isom (isom/avc1/iso6)
    Размер файла : 1, 80 Гбайт
    Продолжительность : 2 ч. 8 м.
    Режим общего битрейта : Переменный
    Общий поток : 1997 Кбит/сек
    Дата кодирования : UTC 2018-04-20 14: 30: 17
    Дата пометки : UTC 2018-04-20 14: 30: 17
    Видео
    Идентификатор : 1
    Формат : AVC
    Формат/Информация : Advanced Video Codec
    Профиль формата : High@L4
    Настройки формата : CABAC/2 Ref Frames
    Параметр CABAC формата : Да
    Параметр RefFrames формата : 2 кадра
    Идентификатор кодека : avc1
    Идентификатор кодека/Информация : Advanced Video Coding
    Продолжительность : 2 ч. 8 м.
    Битрейт : 1609 Кбит/сек
    Максимальный битрейт : 8505 Кбит/сек
    Ширина : 1920 пикселей
    Высота : 800 пикселей
    Соотношение сторон : 2, 40: 1
    Режим частоты кадров : Постоянный
    Частота кадров : 23, 976 (24000/1001) кадра/сек
    Цветовое пространство : YUV
    Субдискретизация насыщенности : 4: 2: 0
    Битовая глубина : 8 бит
    Тип развёртки : Прогрессивная
    Бит/(Пиксели*Кадры) : 0.044
    Размер потока : 1, 45 Гбайт (81%)
    Дата кодирования : UTC 2018-04-20 14: 30: 17
    Дата пометки : UTC 2018-04-20 14: 32: 59
    Цветовой диапазон : Limited
    Основные цвета : BT.709
    Характеристики трансфера : BT.709
    Коэффициенты матрицы : BT.709
    Аудио
    Идентификатор : 2
    Формат : AAC
    Формат/Информация : Advanced Audio Codec
    Профиль формата : LC
    Идентификатор кодека : mp4a-40-2
    Продолжительность : 2 ч. 8 м.
    Вид битрейта : Переменный
    Битрейт : 384 Кбит/сек
    Максимальный битрейт : 405 Кбит/сек
    Каналы : 2 канала
    Channel(s)_Original : 6 каналов
    Расположение каналов : Front: L C R, Side: L R, LFE
    Частота : 48, 0 КГц
    Частота кадров : 46, 875 кадров/сек (1024 SPF)
    Метод сжатия : С потерями
    Размер потока : 354 Мбайт (19%)
    Заголовок : Дублированный (Лицензия)
    Язык : Russian
    Дата кодирования : UTC 2018-04-20 14: 32: 14
    Дата пометки : UTC 2018-04-20 14: 32: 59
    Текст #1
    Идентификатор : 3
    Формат : Timed Text
    Идентификатор кодека : tx3g
    Продолжительность : 2 ч. 3 м.
    Вид битрейта : Переменный
    Битрейт : 82 бит/сек
    Размер потока : 74, 1 Кбайт (0%)
    Заголовок : Full
    Язык : Russian
    Forced : Нет
    Дата кодирования : UTC 2018-04-20 14: 32: 59
    Дата пометки : UTC 2018-04-20 14: 32: 59
    Текст #2
    Идентификатор : 4
    Формат : Timed Text
    Идентификатор кодека : tx3g
    Продолжительность : 2 ч. 8 м.
    Вид битрейта : Переменный
    Битрейт : 70 бит/сек
    Размер потока : 66, 2 Кбайт (0%)
    Заголовок : Full
    Язык : English
    Forced : Нет
    Дата кодирования : UTC 2018-04-20 14: 32: 59
    Дата пометки : UTC 2018-04-20 14: 32: 59
    Скриншоты:


    Все одноименные релизы в Клубе
    Время раздачи: с 8: 00 до 20: 00 (до появления первых 3-5 скачавших)


    Игра/The Game (1997) HDRip [H.264] [MP4|1920x800]
    Рейтинг →
     (голосов: 1, оценка 5/5, голосовать можно 1 раз )

    Другие торренты по теме:

  • Ranpo Kitan: Game of Laplace / Rampo Kitan: Game of Laplace / Таинственные истории Эдогавы Рампо: Игра Лапласа [2015, TV, 6 из 11 ep] HDTVRip 720p Raw скачать через торрент бесплатно
  • Gekijouban Kuroko no Baske: Last Game | Kurokos basketbal: Last Game | Баскетбол Куроко: последняя игра [2017, Movie] BDRip 1080p raw
  • Ou-sama Game The Animation / Kings Game The Animation / Королевская игра [2017, TV, 1 из 12] HDTV 720p raw
  • Ousama Game The Animation / Kings Game The Animation / Королевская Игра [2017, TV, 1 из 12] WEB-DL 720p Raw+Rus
  • No Game No Life | Игра на выживание | Нет игры - нет жизни [2014, TV, 8 из 12 эп.] BDrip 1080p raw скачать через торрент бесплатно
  • Шерлок Холмс: Игра теней / Sherlock Holmes: A Game of Shadows(2011) BDRip [1080p] ATV
  • Игра / Игры разведок / The Game (2014) WEB-DLRip [H.264 / 720p-LQ] (сезон 1, серии 1 из 6) CSS (обновляемая) скачать через торрент бесплатно
  • Игра / Игры разведок / The Game (2014) WEB-DLRip (сезон 1, серии 1 из 6) CSS (обновляемая) скачать через торрент бесплатно


    • Комментарии (0):

      Информация

      Информация

        Посетители, находящиеся в группе Гости, не могут оставлять комментарии в данной новости.

        ↓ Меню




        ↓ Опрос

        Вы добавили сайт в закладки?
        Да
        Нет


        Top 10 за месяц (КПК и мобильные)