.
Авторизация | Регистрация
Хочешь лучшие торренты? Добавь свой email!
Добавить

Торрент скачать бесплатно

  • support: webmaster@btracker.org
» » TheDRZJ - Сборник видео (2014-2018) WEB-DL [H.264] [MP4|1280x720, 1920x1080] (обновляемая) [AD] торрент скачать бесплатно


    TheDRZJ - Сборник видео (2014-2018) WEB-DL [H.264] [MP4|1280x720, 1920x1080] (обновляемая) [AD] торрент скачать бесплатно

    Опубликовал: Админ | Дата: 1-05-2018, 05:01 | .torrent скачали: 0

    TheDRZJ - Сборник видео (2014-2018) WEB-DL [H.264] [MP4|1280x720, 1920x1080] (обновляемая) [AD]Жанр: Видеоблог, обзор игр, записи прямых трансляций
    Режиссер: TheDRZJ
    Актеры: TheDRZJ, Evilborsh

    Описание

    Сборник видео с YouTube канала Андрея Хестанова aka TheDRZJ.
    Раздача будет дополняться.
    Последнее обновление 25.04.18 (318 файлов)
    Продолжительность: ~00: 20: 07 выпуск
    Качество видео: WEB-DL
    Перевод: не требуется (изначально русскоязычная озвучка)
    Субтитры: отсутствуют
    Видео: AVC/H.264, 1280x720, 1920x1080, ~1020-3020 Kbps
    Аудио: AAC, 2 ch, 128-192 Kbps

    Общее
    Полное имя : WoTHARDLYOWNED#HARDLYOWNED Sherlock Edition Выпуск 5 Lac0STee, Т-43, 9 фрагов и “Защитник“.mp4
    Формат : MPEG-4
    Профиль формата : Base Media/Version 2
    Идентификатор кодека : mp42 (isom/mp42)
    Размер файла : 229 Мбайт
    Продолжительность : 10 м. 7 с.
    Режим общего битрейта : Переменный
    Общий поток : 3156 Кбит/сек
    Дата кодирования : UTC 2013-04-10 19: 35: 40
    Дата пометки : UTC 2013-04-10 19: 35: 40
    gsst : 0
    gstd : 608130
    Видео
    Идентификатор : 1
    Формат : AVC
    Формат/Информация : Advanced Video Codec
    Профиль формата : High@L3.1
    Настройки формата : CABAC/1 Ref Frames
    Параметр CABAC формата : Да
    Параметр RefFrames формата : 1 кадр
    Параметр GOP формата : M=1, N=60
    Идентификатор кодека : avc1
    Идентификатор кодека/Информация : Advanced Video Coding
    Продолжительность : 10 м. 7 с.
    Битрейт : 2961 Кбит/сек
    Максимальный битрейт : 8468 Кбит/сек
    Ширина : 1280 пикселей
    Высота : 720 пикселей
    Соотношение сторон : 16: 9
    Режим частоты кадров : Постоянный
    Частота кадров : 29, 970 (30000/1001) кадров/сек
    Цветовое пространство : YUV
    Субдискретизация насыщенности : 4: 2: 0
    Битовая глубина : 8 бит
    Тип развёртки : Прогрессивная
    Бит/(Пиксели*Кадры) : 0.107
    Размер потока : 215 Мбайт (94%)
    Дата пометки : UTC 2013-04-10 19: 36: 18
    Аудио
    Идентификатор : 2
    Формат : AAC
    Формат/Информация : Advanced Audio Codec
    Профиль формата : LC
    Идентификатор кодека : mp4a-40-2
    Продолжительность : 10 м. 7 с.
    Вид битрейта : Переменный
    Битрейт : 192 Кбит/сек
    Максимальный битрейт : 203 Кбит/сек
    Каналы : 2 канала
    Расположение каналов : Front: L R
    Частота : 44, 1 КГц
    Частота кадров : 43, 066 кадра/сек (1024 SPF)
    Метод сжатия : С потерями
    Размер потока : 13, 9 Мбайт (6%)
    Заголовок : IsoMedia File Produced by Google, 5-11-2011
    Дата кодирования : UTC 2013-04-10 19: 36: 05
    Дата пометки : UTC 2013-04-10 19: 36: 18
    Общее
    Полное имя : Обзоры игрGOD OF WAR - ОБЗОР. ЛУЧШИЙ ИМПАКТ ПОКОЛЕНИЯ.mp4
    Формат : MPEG-4
    Профиль формата : Base Media
    Идентификатор кодека : isom (isom/iso2/avc1/mp41)
    Размер файла : 334 Мбайт
    Продолжительность : 11 м. 35 с.
    Общий поток : 4029 Кбит/сек
    Программа кодирования : Lavf57.2.100
    Видео
    Идентификатор : 1
    Формат : AVC
    Формат/Информация : Advanced Video Codec
    Профиль формата : High@L4
    Настройки формата : CABAC/3 Ref Frames
    Параметр CABAC формата : Да
    Параметр RefFrames формата : 3 кадра
    Идентификатор кодека : avc1
    Идентификатор кодека/Информация : Advanced Video Coding
    Продолжительность : 11 м. 35 с.
    Битрейт : 3895 Кбит/сек
    Ширина : 1920 пикселей
    Высота : 1080 пикселей
    Соотношение сторон : 16: 9
    Режим частоты кадров : Постоянный
    Частота кадров : 30, 000 кадров/сек
    Цветовое пространство : YUV
    Субдискретизация насыщенности : 4: 2: 0
    Битовая глубина : 8 бит
    Тип развёртки : Прогрессивная
    Бит/(Пиксели*Кадры) : 0.063
    Размер потока : 323 Мбайт (97%)
    Цветовой диапазон : Limited
    Основные цвета : BT.709
    Характеристики трансфера : BT.709
    Коэффициенты матрицы : BT.709
    Аудио
    Идентификатор : 2
    Формат : AAC
    Формат/Информация : Advanced Audio Codec
    Профиль формата : LC
    Идентификатор кодека : mp4a-40-2
    Продолжительность : 11 м. 35 с.
    Вид битрейта : Постоянный
    Битрейт : 126 Кбит/сек
    Каналы : 2 канала
    Расположение каналов : Front: L R
    Частота : 44, 1 КГц
    Частота кадров : 43, 066 кадра/сек (1024 SPF)
    Метод сжатия : С потерями
    Размер потока : 10, 4 Мбайт (3%)
    Язык : English
    Default : Да
    AlternateGroup/String : 1
    Общее
    Полное имя : Фрагменты стримовBattlefield 4 Fun montage by TheDRZJ Co (Забавные моменты).mp4
    Формат : MPEG-4
    Профиль формата : Base Media/Version 2
    Идентификатор кодека : mp42 (isom/mp42)
    Размер файла : 52, 1 Мбайт
    Продолжительность : 3 м. 36 с.
    Режим общего битрейта : Переменный
    Общий поток : 2019 Кбит/сек
    Дата кодирования : UTC 2016-08-13 09: 18: 50
    Дата пометки : UTC 2016-08-13 09: 18: 50
    gsst : 0
    gstd : 216688
    Видео
    Идентификатор : 1
    Формат : AVC
    Формат/Информация : Advanced Video Codec
    Профиль формата : Main@L3.1
    Настройки формата : CABAC/3 Ref Frames
    Параметр CABAC формата : Да
    Параметр RefFrames формата : 3 кадра
    Идентификатор кодека : avc1
    Идентификатор кодека/Информация : Advanced Video Coding
    Продолжительность : 3 м. 36 с.
    Битрейт : 1889 Кбит/сек
    Ширина : 1164 пикселя
    Высота : 720 пикселей
    Соотношение сторон : 16: 10
    Режим частоты кадров : Переменный
    Частота кадров : 29, 970 (29970/1000) кадров/сек
    Минимальная частота кадров : 26, 087 кадров/сек
    Максимальная частота кадров : 600, 000 кадров/сек
    Цветовое пространство : YUV
    Субдискретизация насыщенности : 4: 2: 0
    Битовая глубина : 8 бит
    Тип развёртки : Прогрессивная
    Бит/(Пиксели*Кадры) : 0.075
    Размер потока : 48, 8 Мбайт (94%)
    Заголовок : ISO Media file produced by Google Inc.
    Дата кодирования : UTC 2016-08-13 09: 18: 50
    Дата пометки : UTC 2016-08-13 09: 18: 50
    Аудио
    Идентификатор : 2
    Формат : AAC
    Формат/Информация : Advanced Audio Codec
    Профиль формата : LC
    Идентификатор кодека : mp4a-40-2
    Продолжительность : 3 м. 36 с.
    Вид битрейта : Переменный
    Битрейт : 126 Кбит/сек
    Каналы : 2 канала
    Расположение каналов : Front: L R
    Частота : 44, 1 КГц
    Частота кадров : 43, 066 кадра/сек (1024 SPF)
    Метод сжатия : С потерями
    Размер потока : 3, 24 Мбайт (6%)
    Заголовок : ISO Media file produced by Google Inc.
    Дата кодирования : UTC 2016-08-13 09: 18: 50
    Дата пометки : UTC 2016-08-13 09: 18: 50
    Общее
    Полное имя : Фрагменты стримовTitanfall gameplay Первый взгляд кибератлета.mp4
    Формат : MPEG-4
    Профиль формата : Base Media
    Идентификатор кодека : isom (isom/iso2/avc1/mp41)
    Размер файла : 146 Мбайт
    Продолжительность : 18 м. 35 с.
    Общий поток : 1099 Кбит/сек
    Программа кодирования : Lavf57.2.100
    Видео
    Идентификатор : 1
    Формат : AVC
    Формат/Информация : Advanced Video Codec
    Профиль формата : Main@L3.1
    Настройки формата : CABAC/3 Ref Frames
    Параметр CABAC формата : Да
    Параметр RefFrames формата : 3 кадра
    Идентификатор кодека : avc1
    Идентификатор кодека/Информация : Advanced Video Coding
    Продолжительность : 18 м. 35 с.
    Битрейт : 965 Кбит/сек
    Ширина : 854 пикселя
    Высота : 474 пикселя
    Соотношение сторон : 16: 9
    Режим частоты кадров : Переменный
    Частота кадров : 29, 970 (29970/1000) кадров/сек
    Минимальная частота кадров : 29, 970 кадров/сек
    Максимальная частота кадров : 1363, 636 кадра/сек
    Цветовое пространство : YUV
    Субдискретизация насыщенности : 4: 2: 0
    Битовая глубина : 8 бит
    Тип развёртки : Прогрессивная
    Бит/(Пиксели*Кадры) : 0.080
    Размер потока : 128 Мбайт (88%)
    Аудио
    Идентификатор : 2
    Формат : AAC
    Формат/Информация : Advanced Audio Codec
    Профиль формата : LC
    Идентификатор кодека : mp4a-40-2
    Продолжительность : 18 м. 35 с.
    Вид битрейта : Постоянный
    Битрейт : 126 Кбит/сек
    Каналы : 2 канала
    Расположение каналов : Front: L R
    Частота : 44, 1 КГц
    Частота кадров : 43, 066 кадра/сек (1024 SPF)
    Метод сжатия : С потерями
    Размер потока : 16, 7 Мбайт (11%)
    Default : Да
    AlternateGroup/String : 1
    Скриншоты:


    Все одноименные релизы в Клубе
    Время раздачи: Пн-Пт с 18: 00 до 21: 00 или больше


    TheDRZJ - Сборник видео (2014-2018) WEB-DL [H.264] [MP4|1280x720, 1920x1080] (обновляемая) [AD]
    Рейтинг →
     (голосов: 1, оценка 5/5, голосовать можно 1 раз )

    Другие торренты по теме:



      Комментарии (0):

      Информация

      Информация

        Посетители, находящиеся в группе Гости, не могут оставлять комментарии в данной новости.

        ↓ Меню




        ↓ Опрос

        Вы добавили сайт в закладки?
        Да
        Нет


        Top 10 за месяц (КПК и мобильные)

        Кукутики: Полная коллекция / (Kukutiki: Full collection) (2015-2018) WEB-DLRip [H.264] (Серии 1-79 из 79 + Караоке версии 1-16 из 16) [MP4|1280x720]

        (скачиваний: 261)
        Тоботы / Tobot (2010) TVRip [H.264] (Сезон 1-2, серии 1-57 из ) [MP4|720x408]

        (скачиваний: 160)
        Garmin: Дороги России Топо 6.27 [Ru]

        (скачиваний: 141)
        Garmin: City Navigator Russia NTU 2019.10 - HERE [Ru]

        (скачиваний: 132)
        Карты для iGO Europe (Primo, NextGen, Becker и т.д.) 2018.02.24 [Ru / Multi]

        (скачиваний: 113)
        NaviTel / Навител Навигатор 9.8.187 [Ru / Multi] (Windows CE)

        (скачиваний: 104)
        Сборка iGO Primo NextGen 9.19.1.484935 WinCE [Ru / Multi] - навигационный программный комплекс для устройств с WinCE скачать через торрент бесплатно

        (скачиваний: 104)
        Альтернативные скины для Навител v9.8.2 / 9.8.3 / 9.8.19 [Ru]

        (скачиваний: 82)
        Три медведя: Полная коллекция / (The three bears: Full collection) (2016-2018) WEB-DLRip [H.264] (Серии 1-32 из 32 + 1-14 из 14 Караоке версий) [MP4|1280x720]

        (скачиваний: 69)
        Прошивка Android KitKat 4.4.2 (Официальное обновление 01010 Europe (Android 4.4.2) для Alcatel One Touch Idol X+ (04.09.2014) <Ru>) скачать через торрент бесплатно

        (скачиваний: 55)