.
Авторизация | Регистрация
Хочешь лучшие торренты? Добавь свой email!
Добавить

Торрент скачать бесплатно

  • support: webmaster@btracker.org
» » Поймай меня, если сможешь / Catch Me If You Can (2002) HDRip [H.264] [MP4|1280x690] торрент скачать бесплатно


    Поймай меня, если сможешь / Catch Me If You Can (2002) HDRip [H.264] [MP4|1280x690] торрент скачать бесплатно

    Опубликовал: Админ | Дата: 1-05-2018, 05:01 | .torrent скачали: 2

    Поймай меня, если сможешь / Catch Me If You Can (2002) HDRip [H.264] [MP4|1280x690]Производство: США, Канада
    Жанр: Драма, Криминал, Биография
    Режиссер: Стивен Спилберг
    Продюсер: Уолтер Ф. Паркс, Стивен Спилберг, Барри Кемп
    Актеры: Леонардо ДиКаприо, Том Хэнкс, Кристофер Уокен, Мартин Шин, Натали Бэй, Эми Адамс, Джеймс Бролин, Брайан Хау, Фрэнк Джон Хьюз, Стив Истин

    Описание

    Фрэнк Эбегнейл успел поработать врачом, адвокатом и пилотом на пассажирской авиалинии — и все это до достижения полного совершеннолетия в 21 год. Мастер в обмане и жульничестве, он также обладал искусством подделки документов, что в конечном счете принесло ему миллионы долларов, которые он получил по фальшивым чекам.
    Агент ФБР Карл Хэнрэтти отдал бы все, чтобы схватить Фрэнка и привлечь к ответственности за свои деяния, но Фрэнк всегда опережает его на шаг, заставляя продолжать погоню.

    Возраст: 12+ (зрителям, достигшим 12 лет)
    Рейтинг MPAA: PG-13 (детям до 13 лет просмотр нежелателен)
    Дата мировой премьеры: 16 декабря 2002
    Дата российской премьеры: 13 февраля 2003
    Продолжительность: 02: 20: 43
    Качество видео: HDRip
    Перевод: Дублированный (Лицензия)
    Субтитры: Русские (полные), Английские (полные)
    Видео: AVC/H.264, 1280x690, ~1375 Kbps
    Аудио: AAC, 2 ch, ~129 Kbps

    Общее
    Полное имя : E: Download3Поймай меня, если сможешь 2002 720p.mp4
    Формат : MPEG-4
    Профиль формата : Base Media
    Идентификатор кодека : isom (isom/avc1)
    Размер файла : 1, 48 Гбайт
    Продолжительность : 2 ч. 20 м.
    Режим общего битрейта : Переменный
    Общий поток : 1507 Кбит/сек
    Дата кодирования : UTC 2018-04-25 09: 34: 01
    Дата пометки : UTC 2018-04-25 09: 34: 01
    Видео
    Идентификатор : 1
    Формат : AVC
    Формат/Информация : Advanced Video Codec
    Профиль формата : High@L3.1
    Настройки формата : CABAC/1 Ref Frames
    Параметр CABAC формата : Да
    Параметр RefFrames формата : 1 кадр
    Идентификатор кодека : avc1
    Идентификатор кодека/Информация : Advanced Video Coding
    Продолжительность : 2 ч. 20 м.
    Битрейт : 1375 Кбит/сек
    Максимальный битрейт : 11, 7 Мбит/сек
    Ширина : 1280 пикселей
    Высота : 690 пикселей
    Соотношение сторон : 1, 85: 1
    Режим частоты кадров : Постоянный
    Частота кадров : 23, 976 (24000/1001) кадра/сек
    Цветовое пространство : YUV
    Субдискретизация насыщенности : 4: 2: 0
    Битовая глубина : 8 бит
    Тип развёртки : Прогрессивная
    Бит/(Пиксели*Кадры) : 0.065
    Размер потока : 1, 35 Гбайт (91%)
    Дата кодирования : UTC 2018-04-25 09: 34: 01
    Дата пометки : UTC 2018-04-25 09: 35: 18
    Цветовой диапазон : Limited
    Основные цвета : BT.709
    Характеристики трансфера : BT.709
    Коэффициенты матрицы : BT.709
    Аудио
    Идентификатор : 2
    Формат : AAC
    Формат/Информация : Advanced Audio Codec
    Профиль формата : LC
    Идентификатор кодека : mp4a-40-2
    Продолжительность : 2 ч. 20 м.
    Вид битрейта : Переменный
    Битрейт : 129 Кбит/сек
    Максимальный битрейт : 137 Кбит/сек
    Каналы : 2 канала
    Расположение каналов : Front: L R
    Частота : 48, 0 КГц
    Частота кадров : 46, 875 кадров/сек (1024 SPF)
    Метод сжатия : С потерями
    Размер потока : 129 Мбайт (9%)
    Заголовок : Дублированный (Лицензия)
    Язык : Russian
    Дата кодирования : UTC 2018-04-25 09: 35: 04
    Дата пометки : UTC 2018-04-25 09: 35: 18
    Текст #1
    Идентификатор : 3
    Формат : Timed Text
    Идентификатор кодека : tx3g
    Продолжительность : 2 ч. 15 м.
    Вид битрейта : Переменный
    Битрейт : 101 бит/сек
    Размер потока : 100 Кбайт (0%)
    Заголовок : Full
    Язык : Russian
    Forced : Нет
    Дата кодирования : UTC 2018-04-25 09: 35: 18
    Дата пометки : UTC 2018-04-25 09: 35: 18
    Текст #2
    Идентификатор : 4
    Формат : Timed Text
    Идентификатор кодека : tx3g
    Продолжительность : 2 ч. 15 м.
    Вид битрейта : Переменный
    Битрейт : 73 бит/сек
    Размер потока : 72, 6 Кбайт (0%)
    Заголовок : Full
    Язык : English
    Forced : Нет
    Дата кодирования : UTC 2018-04-25 09: 35: 18
    Дата пометки : UTC 2018-04-25 09: 35: 18
    Скриншоты:


    Все одноименные релизы в Клубе
    Время раздачи: с 8: 00 до 20: 00 (до появления первых 3-5 скачавших)


    Поймай меня, если сможешь/Catch Me If You Can (2002) HDRip [H.264] [MP4|1280x690]
    Рейтинг →
     (голосов: 1, оценка 3/5, голосовать можно 1 раз )

    Другие торренты по теме:

  • Анна Орлова | Поймай меня, или Моя полиция меня бережет (2016) [FB2]
  • Поймай меня, если сможешь / Catch Me If You Can (2002) BDRip [720p]
  • Поймай меня, если сможешь / Catch Me If You Can (2002) BDRip [1080p]
  • Поймай меня, если сможешь / Catch Me If You Can (2002) BDRemux [H.264 / 1080p] скачать через торрент бесплатно
  • Поймай меня, папочка / Catch Me Daddy (2014) BDRip [VO] скачать через торрент бесплатно
  • Поймай меня, если сможешь / Catch Me If You Can (2002) BDRip[H.265 / 1080p-LQ]
  • Фрэнк Абигнейл | Поймай меня, если сможешь. Реальная история самого неуловимого мошенника за всю историю преступлений (2017) [FB2]
  • Фрэнк Абигнейл | Поймай меня, если сможешь (2017) [MP3]


    • Комментарии (0):

      Информация

      Информация

        Посетители, находящиеся в группе Гости, не могут оставлять комментарии в данной новости.

        ↓ Меню




        ↓ Опрос

        Вы добавили сайт в закладки?
        Да
        Нет


        Top 10 за месяц (КПК и мобильные)