.
Авторизация | Регистрация
Хочешь лучшие торренты? Добавь свой email!
Добавить

Торрент скачать бесплатно

  • support: webmaster@btracker.org
» » Большой куш / Snatch. (2000) HDRip [H.264] [MP4|1280x694] торрент скачать бесплатно


    Большой куш / Snatch. (2000) HDRip [H.264] [MP4|1280x694] торрент скачать бесплатно

    Опубликовал: Админ | Дата: 30-04-2018, 05:00 | .torrent скачали: 2

    Большой куш / Snatch. (2000) HDRip [H.264] [MP4|1280x694]Производство: Великобритания, США
    Жанр: Криминал, Комедия, Боевик
    Режиссер: Гай Ричи
    Продюсер: Мэттью Вон, Майкл Дрейер, Стефен Маркс
    Актеры: Брэд Питт, Джейсон Стэйтем, Бенисио Дель Торо, Стивен Грэм, Алан Форд, Деннис Фарина, Раде Шербеджия, Винни Джонс, Джейсон Флеминг, Майк Рейд

    Описание

    Четырехпалый Френки должен был переправить краденый алмаз из Англии в США своему боссу Эви. Но вместо этого герой попадает в эпицентр больших неприятностей. Сделав ставку на подпольном боксерском поединке, Френки попадает в круговорот весьма нежелательных событий.
    Вокруг героя и его груза разворачивается сложная интрига с участием множества колоритных персонажей лондонского дна — русского гангстера, троих незадачливых грабителей, хитрого боксера и угрюмого громилы грозного мафиози. Каждый норовит в одиночку сорвать Большой Куш.

    Возраст: 16+ (зрителям, достигшим 16 лет)
    Рейтинг MPAA: R (лицам до 17 лет обязательно присутствие взрослого)
    Дата мировой премьеры: 23 августа 2000
    Дата российской премьеры: 10 мая 2001
    Продолжительность: 01: 42: 46
    Качество видео: HDRip
    Перевод: Многоголосый закадровый (Лицензия)
    Субтитры: Русские (полные)
    Видео: AVC/H.264, 1280x694, ~1295 Kbps
    Аудио: AAC, 2 ch, ~129 Kbps

    Общее
    Полное имя : E: Download3Большой куш 2000 720p.mp4
    Формат : MPEG-4
    Профиль формата : Base Media
    Идентификатор кодека : isom (isom/avc1)
    Размер файла : 1, 02 Гбайт
    Продолжительность : 1 ч. 42 м.
    Режим общего битрейта : Переменный
    Общий поток : 1427 Кбит/сек
    Дата кодирования : UTC 2018-04-25 13: 17: 39
    Дата пометки : UTC 2018-04-25 13: 17: 39
    Видео
    Идентификатор : 1
    Формат : AVC
    Формат/Информация : Advanced Video Codec
    Профиль формата : High@L3.1
    Настройки формата : CABAC/1 Ref Frames
    Параметр CABAC формата : Да
    Параметр RefFrames формата : 1 кадр
    Идентификатор кодека : avc1
    Идентификатор кодека/Информация : Advanced Video Coding
    Продолжительность : 1 ч. 42 м.
    Битрейт : 1295 Кбит/сек
    Максимальный битрейт : 5569 Кбит/сек
    Ширина : 1280 пикселей
    Высота : 694 пикселя
    Соотношение сторон : 1, 85: 1
    Режим частоты кадров : Постоянный
    Частота кадров : 23, 976 (24000/1001) кадра/сек
    Цветовое пространство : YUV
    Субдискретизация насыщенности : 4: 2: 0
    Битовая глубина : 8 бит
    Тип развёртки : Прогрессивная
    Бит/(Пиксели*Кадры) : 0.061
    Размер потока : 952 Мбайт (91%)
    Дата кодирования : UTC 2018-04-25 13: 17: 39
    Дата пометки : UTC 2018-04-25 13: 18: 24
    Цветовой диапазон : Limited
    Основные цвета : BT.709
    Характеристики трансфера : BT.709
    Коэффициенты матрицы : BT.709
    Аудио
    Идентификатор : 2
    Формат : AAC
    Формат/Информация : Advanced Audio Codec
    Профиль формата : LC
    Идентификатор кодека : mp4a-40-2
    Продолжительность : 1 ч. 42 м.
    Вид битрейта : Переменный
    Битрейт : 129 Кбит/сек
    Максимальный битрейт : 133 Кбит/сек
    Каналы : 2 канала
    Расположение каналов : Front: L R
    Частота : 48, 0 КГц
    Частота кадров : 46, 875 кадров/сек (1024 SPF)
    Метод сжатия : С потерями
    Размер потока : 94, 5 Мбайт (9%)
    Заголовок : Многоголосый закадровый (Лицензия)
    Язык : Russian
    Дата кодирования : UTC 2018-04-25 13: 18: 15
    Дата пометки : UTC 2018-04-25 13: 18: 24
    Текст
    Идентификатор : 3
    Формат : Timed Text
    Идентификатор кодека : tx3g
    Продолжительность : 1 ч. 40 м.
    Вид битрейта : Переменный
    Битрейт : 124 бит/сек
    Размер потока : 91, 3 Кбайт (0%)
    Заголовок : Full
    Язык : Russian
    Forced : Нет
    Дата кодирования : UTC 2018-04-25 13: 18: 24
    Дата пометки : UTC 2018-04-25 13: 18: 24
    Скриншоты:


    Все одноименные релизы в Клубе
    Время раздачи: с 8: 00 до 20: 00 (до появления первых 3-5 скачавших)


    Большой куш/Snatch. (2000) HDRip [H.264] [MP4|1280x694]
    Рейтинг →
     (голосов: 1, оценка 5/5, голосовать можно 1 раз )

    Другие торренты по теме:

  • Большой куш / Snatch (2000) BDRip [H.264 / 720p] скачать через торрент бесплатно
  • Большой куш / Snatch. (2000) BDRip [H.264 / 720p]
  • Большой куш / Snatch. (2000) BDRemux [H.264 / 1080p]
  • Большой куш / Snatch. (2000) BDRip [AVO]
  • Большой куш / Snatch (2000) BDRip [H.264 / 1080p-LQ]
  • Большой куш / Snatch (2017) WEBRip [H.264 / 1080p-LQ] (сезон 1, серии 1-2 из 10) OmskBird (обновляемая)
  • Большой куш / Snatch (2017) WEBRip (сезон 1, серии 1-7 из 10) NewStudio (обновляемая)
  • Большой куш / Snatch. (2000) BDRip [H.264 / 1080p]


    • Комментарии (0):

      Информация

      Информация

        Посетители, находящиеся в группе Гости, не могут оставлять комментарии в данной новости.

        ↓ Меню




        ↓ Опрос

        Вы добавили сайт в закладки?
        Да
        Нет


        Top 10 за месяц (КПК и мобильные)