.
Авторизация | Регистрация
Хочешь лучшие торренты? Добавь свой email!
Добавить

Торрент скачать бесплатно

  • support: webmaster@btracker.org
» » Большой куш / Snatch. (2000) HDRip [H.264] [MP4|1920x1040] торрент скачать бесплатно


    Большой куш / Snatch. (2000) HDRip [H.264] [MP4|1920x1040] торрент скачать бесплатно

    Опубликовал: Админ | Дата: 30-04-2018, 05:00 | .torrent скачали: 1

    Большой куш / Snatch. (2000) HDRip [H.264] [MP4|1920x1040]Производство: Великобритания, США
    Жанр: Криминал, Комедия, Боевик
    Режиссер: Гай Ричи
    Продюсер: Мэттью Вон, Майкл Дрейер, Стефен Маркс
    Актеры: Брэд Питт, Джейсон Стэйтем, Бенисио Дель Торо, Стивен Грэм, Алан Форд, Деннис Фарина, Раде Шербеджия, Винни Джонс, Джейсон Флеминг, Майк Рейд

    Описание

    Четырехпалый Френки должен был переправить краденый алмаз из Англии в США своему боссу Эви. Но вместо этого герой попадает в эпицентр больших неприятностей. Сделав ставку на подпольном боксерском поединке, Френки попадает в круговорот весьма нежелательных событий.
    Вокруг героя и его груза разворачивается сложная интрига с участием множества колоритных персонажей лондонского дна — русского гангстера, троих незадачливых грабителей, хитрого боксера и угрюмого громилы грозного мафиози. Каждый норовит в одиночку сорвать Большой Куш.

    Возраст: 16+ (зрителям, достигшим 16 лет)
    Рейтинг MPAA: R (лицам до 17 лет обязательно присутствие взрослого)
    Дата мировой премьеры: 23 августа 2000
    Дата российской премьеры: 10 мая 2001
    Продолжительность: 01: 42: 46
    Качество видео: HDRip
    Перевод: Многоголосый закадровый (Лицензия)
    Субтитры: Русские (полные)
    Видео: AVC/H.264, 1920x1040, ~2495 Kbps
    Аудио: AAC, 6 ch, ~384 Kbps

    Общее
    Полное имя : E: Download3Большой куш 2000 1080p.mp4
    Формат : MPEG-4
    Профиль формата : Base Media
    Идентификатор кодека : isom (isom/avc1/iso6)
    Размер файла : 2, 07 Гбайт
    Продолжительность : 1 ч. 42 м.
    Режим общего битрейта : Переменный
    Общий поток : 2883 Кбит/сек
    Дата кодирования : UTC 2018-04-25 14: 06: 48
    Дата пометки : UTC 2018-04-25 14: 06: 48
    Видео
    Идентификатор : 1
    Формат : AVC
    Формат/Информация : Advanced Video Codec
    Профиль формата : High@L4
    Настройки формата : CABAC/2 Ref Frames
    Параметр CABAC формата : Да
    Параметр RefFrames формата : 2 кадра
    Идентификатор кодека : avc1
    Идентификатор кодека/Информация : Advanced Video Coding
    Продолжительность : 1 ч. 42 м.
    Битрейт : 2495 Кбит/сек
    Максимальный битрейт : 7993 Кбит/сек
    Ширина : 1920 пикселей
    Высота : 1040 пикселей
    Соотношение сторон : 1, 85: 1
    Режим частоты кадров : Постоянный
    Частота кадров : 23, 976 (24000/1001) кадра/сек
    Цветовое пространство : YUV
    Субдискретизация насыщенности : 4: 2: 0
    Битовая глубина : 8 бит
    Тип развёртки : Прогрессивная
    Бит/(Пиксели*Кадры) : 0.052
    Размер потока : 1, 79 Гбайт (87%)
    Дата кодирования : UTC 2018-04-25 14: 06: 48
    Дата пометки : UTC 2018-04-25 14: 08: 14
    Цветовой диапазон : Limited
    Основные цвета : BT.709
    Характеристики трансфера : BT.709
    Коэффициенты матрицы : BT.709
    Аудио
    Идентификатор : 2
    Формат : AAC
    Формат/Информация : Advanced Audio Codec
    Профиль формата : LC
    Идентификатор кодека : mp4a-40-2
    Продолжительность : 1 ч. 42 м.
    Вид битрейта : Переменный
    Битрейт : 384 Кбит/сек
    Максимальный битрейт : 398 Кбит/сек
    Каналы : 2 канала
    Channel(s)_Original : 6 каналов
    Расположение каналов : Front: L C R, Side: L R, LFE
    Частота : 48, 0 КГц
    Частота кадров : 46, 875 кадров/сек (1024 SPF)
    Метод сжатия : С потерями
    Размер потока : 283 Мбайт (13%)
    Заголовок : Многоголосый закадровый (Лицензия)
    Язык : Russian
    Дата кодирования : UTC 2018-04-25 14: 07: 58
    Дата пометки : UTC 2018-04-25 14: 08: 14
    Текст
    Идентификатор : 3
    Формат : Timed Text
    Идентификатор кодека : tx3g
    Продолжительность : 1 ч. 40 м.
    Вид битрейта : Переменный
    Битрейт : 124 бит/сек
    Размер потока : 91, 3 Кбайт (0%)
    Заголовок : Full
    Язык : Russian
    Forced : Нет
    Дата кодирования : UTC 2018-04-25 14: 08: 13
    Дата пометки : UTC 2018-04-25 14: 08: 14
    Скриншоты:


    Все одноименные релизы в Клубе
    Время раздачи: с 8: 00 до 20: 00 (до появления первых 3-5 скачавших)


    Большой куш/Snatch. (2000) HDRip [H.264] [MP4|1920x1040]
    Рейтинг →
     (голосов: 1, оценка 3/5, голосовать можно 1 раз )

    Другие торренты по теме:

  • Большой куш / Snatch (2000) BDRip [H.264 / 720p] скачать через торрент бесплатно
  • Большой куш / Snatch. (2000) BDRip [H.264 / 720p]
  • Большой куш / Snatch. (2000) BDRemux [H.264 / 1080p]
  • Большой куш / Snatch. (2000) BDRip [AVO]
  • Большой куш / Snatch (2000) BDRip [H.264 / 1080p-LQ]
  • Большой куш / Snatch (2017) WEBRip [H.264 / 1080p-LQ] (сезон 1, серии 1-2 из 10) OmskBird (обновляемая)
  • Большой куш / Snatch (2017) WEBRip (сезон 1, серии 1-7 из 10) NewStudio (обновляемая)
  • Большой куш / Snatch. (2000) BDRip [H.264 / 1080p]


    • Комментарии (0):

      Информация

      Информация

        Посетители, находящиеся в группе Гости, не могут оставлять комментарии в данной новости.

        ↓ Меню




        ↓ Опрос

        Вы добавили сайт в закладки?
        Да
        Нет


        Top 10 за месяц (КПК и мобильные)