.
Авторизация | Регистрация
Хочешь лучшие торренты? Добавь свой email!
Добавить

Торрент скачать бесплатно

  • support: webmaster@btracker.org
» » Гладиатор / Gladiator (2000) HDRip [H.264] [MP4|1920x816] [Extended Cut] торрент скачать бесплатно


    Гладиатор / Gladiator (2000) HDRip [H.264] [MP4|1920x816] [Extended Cut] торрент скачать бесплатно

    Опубликовал: Админ | Дата: 29-04-2018, 05:00 | .torrent скачали: 1

    Гладиатор / Gladiator (2000) HDRip [H.264] [MP4|1920x816] [Extended Cut]Производство: США, Великобритания
    Жанр: Боевик, Драма, Приключения
    Режиссер: Ридли Скотт
    Продюсер: Дэвид Францони, Бранко Лустиг, Дуглас Уик
    Актеры: Расселл Кроу, Хоакин Феникс, Конни Нильсен, Оливер Рид, Ричард Харрис, Дерек Джекоби, Джимон Хонсу, Дэвид Скофилд, Джон Шрэпнел, Томас Арана

    Описание

    В великой Римской империи не было военачальника, равного генералу Максимусу. Непобедимые легионы, которыми командовал этот благородный воин, боготворили его и могли последовать за ним даже в ад.
    Но случилось так, что отважный Максимус, готовый сразиться с любым противником в честном бою, оказался бессилен против вероломных придворных интриг. Генерала предали и приговорили к смерти. Чудом избежав гибели, Максимус становится гладиатором.
    Быстро снискав себе славу в кровавых поединках, он оказывается в знаменитом римском Колизее, на арене которого он встретится в смертельной схватке со своим заклятым врагом…

    Возраст: 16+ (зрителям, достигшим 16 лет)
    Рейтинг MPAA: R (лицам до 17 лет обязательно присутствие взрослого)
    Дата мировой премьеры: 1 мая 2000
    Дата российской премьеры: 18 мая 2000
    Продолжительность: 02: 50: 56
    Качество видео: HDRip
    Перевод: Дублированный (Лицензия)
    Субтитры: Русские (форсированные, полные), Английские (полные)
    Видео: AVC/H.264, 1920x816, ~2270 Kbps
    Аудио: AAC, 6 ch, ~384 Kbps

    Общее
    Полное имя : E: Download3Гладиатор 2000 1080p.mp4
    Формат : MPEG-4
    Профиль формата : Base Media
    Идентификатор кодека : isom (isom/avc1/iso6)
    Размер файла : 3, 17 Гбайт
    Продолжительность : 2 ч. 50 м.
    Режим общего битрейта : Переменный
    Общий поток : 2658 Кбит/сек
    Дата кодирования : UTC 2018-04-26 09: 00: 17
    Дата пометки : UTC 2018-04-26 09: 00: 17
    Видео
    Идентификатор : 1
    Формат : AVC
    Формат/Информация : Advanced Video Codec
    Профиль формата : High@L4
    Настройки формата : CABAC/2 Ref Frames
    Параметр CABAC формата : Да
    Параметр RefFrames формата : 2 кадра
    Идентификатор кодека : avc1
    Идентификатор кодека/Информация : Advanced Video Coding
    Продолжительность : 2 ч. 50 м.
    Битрейт : 2270 Кбит/сек
    Максимальный битрейт : 7425 Кбит/сек
    Ширина : 1920 пикселей
    Высота : 816 пикселей
    Соотношение сторон : 2, 35: 1
    Режим частоты кадров : Постоянный
    Частота кадров : 23, 976 (24000/1001) кадра/сек
    Цветовое пространство : YUV
    Субдискретизация насыщенности : 4: 2: 0
    Битовая глубина : 8 бит
    Тип развёртки : Прогрессивная
    Бит/(Пиксели*Кадры) : 0.060
    Размер потока : 2, 71 Гбайт (85%)
    Дата кодирования : UTC 2018-04-26 09: 00: 17
    Дата пометки : UTC 2018-04-26 09: 02: 38
    Цветовой диапазон : Limited
    Основные цвета : BT.709
    Характеристики трансфера : BT.709
    Коэффициенты матрицы : BT.709
    Аудио
    Идентификатор : 2
    Формат : AAC
    Формат/Информация : Advanced Audio Codec
    Профиль формата : LC
    Идентификатор кодека : mp4a-40-2
    Продолжительность : 2 ч. 50 м.
    Вид битрейта : Переменный
    Битрейт : 384 Кбит/сек
    Максимальный битрейт : 396 Кбит/сек
    Каналы : 2 канала
    Channel(s)_Original : 6 каналов
    Расположение каналов : Front: L C R, Side: L R, LFE
    Частота : 48, 0 КГц
    Частота кадров : 46, 875 кадров/сек (1024 SPF)
    Метод сжатия : С потерями
    Размер потока : 470 Мбайт (14%)
    Заголовок : Дублированный (Лицензия)
    Язык : Russian
    Дата кодирования : UTC 2018-04-26 09: 02: 17
    Дата пометки : UTC 2018-04-26 09: 02: 38
    Текст #1
    Идентификатор : 3
    Формат : Timed Text
    Идентификатор кодека : tx3g
    Продолжительность : 2 ч. 46 м.
    Вид битрейта : Переменный
    Битрейт : 1 бит/сек
    Размер потока : 989 байт (0%)
    Заголовок : Forced
    Язык : Russian
    Forced : Нет
    Дата кодирования : UTC 2018-04-26 09: 02: 38
    Дата пометки : UTC 2018-04-26 09: 02: 38
    Текст #2
    Идентификатор : 4
    Формат : Timed Text
    Идентификатор кодека : tx3g
    Продолжительность : 2 ч. 46 м.
    Вид битрейта : Переменный
    Битрейт : 63 бит/сек
    Размер потока : 76, 2 Кбайт (0%)
    Заголовок : Full
    Язык : Russian
    Forced : Нет
    Дата кодирования : UTC 2018-04-26 09: 02: 38
    Дата пометки : UTC 2018-04-26 09: 02: 38
    Текст #3
    Идентификатор : 5
    Формат : Timed Text
    Идентификатор кодека : tx3g
    Продолжительность : 2 ч. 43 м.
    Вид битрейта : Переменный
    Битрейт : 43 бит/сек
    Размер потока : 51, 6 Кбайт (0%)
    Заголовок : Full
    Язык : English
    Forced : Нет
    Дата кодирования : UTC 2018-04-26 09: 02: 38
    Дата пометки : UTC 2018-04-26 09: 02: 38
    Скриншоты:


    Все одноименные релизы в Клубе
    Время раздачи: с 8: 00 до 20: 00 (до появления первых 3-5 скачавших)


    Гладиатор/Gladiator (2000) HDRip [H.264] [MP4|1920x816] [Extended Cut]
    Рейтинг →
     (голосов: 1, оценка 3/5, голосовать можно 1 раз )

    Другие торренты по теме:

  • Гладиатор / Gladiator (2000) HDTVRip [open matte] [h264] [AVO]
  • Гладиатор / Gladiator (2000) BDRemux [H.264 / 1080p] REMASTERED [Extended Cut] [10th Anniversary Edition] скачать через торрент бесплатно
  • Гладиатор / Gladiator (2000) BDRip [H.264 / 1080p] [10th Anniversary Remastered Edition] [Theatrical & Extended Cut] скачать через торрент бесплатно
  • Гладиатор / Gladiator (2000) BDRip [H.264 / 720p] [Extended Cut]
  • Гладиатор / Gladiator [10th Anniversary Remastered Edition] [Extended Cut] (2000) BDRip [H.265 / 1080p]
  • Гладиатор / Gladiator (1992) WEB-DLRip
  • Гладиатор / Gladiator (2000) HDTVRip [H.264 / 720p] [Open Matte] [Extended Cut]
  • Гладиатор / Gladiator (2000) BDRip [H.264 / 1080p] [10th Anniversary Remastered Edition] [Extended Cut]


    • Комментарии (0):

      Информация

      Информация

        Посетители, находящиеся в группе Гости, не могут оставлять комментарии в данной новости.

        ↓ Меню




        ↓ Опрос

        Вы добавили сайт в закладки?
        Да
        Нет


        Top 10 за месяц (КПК и мобильные)