.
Авторизация | Регистрация
Хочешь лучшие торренты? Добавь свой email!
Добавить

Торрент скачать бесплатно

  • support: webmaster@btracker.org
» » Ограбление по-итальянски / The Italian Job (2003) HDRip [H.264] [MP4|1280x536] торрент скачать бесплатно


    Ограбление по-итальянски / The Italian Job (2003) HDRip [H.264] [MP4|1280x536] торрент скачать бесплатно

    Опубликовал: Админ | Дата: 28-04-2018, 05:00 | .torrent скачали: 1

    Ограбление по-итальянски / The Italian Job (2003) HDRip [H.264] [MP4|1280x536]Производство: США, Франция, Великобритания, Италия
    Жанр: Боевик, Триллер, Криминал
    Режиссер: Ф. Гэри Грей
    Продюсер: Дональд Де Лайн, Тим Беван, Гвидо Черасуоло
    Актеры: Марк Уолберг, Шарлиз Терон, Дональд Сазерленд, Джейсон Стэтхэм, Сет Грин, Мос Деф, Эдвард Нортон, Фаусто Каллегарини, Стефано Петронелли, Фабио Скарпа

    Описание

    Джон Бриджер всегда умел спланировать идеальное ограбление. Вместе со своей командой опытных бандитов он провернул не одно дело, но теперь решил уйти на покой. Впереди у Бриджера последнее задание: кража золотых слитков, в которой принимают участие инсайдер Стив, водитель Роб, взрыватель Левое ухо, технарь Лайл и Чарли — верный друг Бриджера и второй планировщик в их команде. Ограбление, изящное и быстрое, было разыграно как по нотам, но после его завершения веселье преступников было омрачено предательством…

    Возраст: 12+ (зрителям, достигшим 12 лет)
    Рейтинг MPAA: PG-13 (детям до 13 лет просмотр нежелателен)
    Дата мировой премьеры: 30 мая 2003
    Дата российской премьеры: 18 сентября 2003
    Продолжительность: 01: 50: 32
    Качество видео: HDRip
    Перевод: Дублированный (Лицензия)
    Субтитры: Русские (полные), Английские (полные)
    Видео: AVC/H.264, 1280x536, ~1226 Kbps
    Аудио: AAC, 2 ch, ~128 Kbps

    Общее
    Полное имя : E: Download3Ограбление по-итальянски 2003 720p.mp4
    Формат : MPEG-4
    Профиль формата : Base Media
    Идентификатор кодека : isom (isom/avc1)
    Размер файла : 1, 05 Гбайт
    Продолжительность : 1 ч. 50 м.
    Режим общего битрейта : Переменный
    Общий поток : 1357 Кбит/сек
    Дата кодирования : UTC 2018-04-26 15: 07: 38
    Дата пометки : UTC 2018-04-26 15: 07: 38
    Видео
    Идентификатор : 1
    Формат : AVC
    Формат/Информация : Advanced Video Codec
    Профиль формата : High@L3.1
    Настройки формата : CABAC/1 Ref Frames
    Параметр CABAC формата : Да
    Параметр RefFrames формата : 1 кадр
    Идентификатор кодека : avc1
    Идентификатор кодека/Информация : Advanced Video Coding
    Продолжительность : 1 ч. 50 м.
    Битрейт : 1226 Кбит/сек
    Максимальный битрейт : 9999 Кбит/сек
    Ширина : 1280 пикселей
    Высота : 536 пикселей
    Соотношение сторон : 2, 40: 1
    Режим частоты кадров : Постоянный
    Частота кадров : 23, 976 (24000/1001) кадра/сек
    Цветовое пространство : YUV
    Субдискретизация насыщенности : 4: 2: 0
    Битовая глубина : 8 бит
    Тип развёртки : Прогрессивная
    Бит/(Пиксели*Кадры) : 0.075
    Размер потока : 969 Мбайт (90%)
    Дата кодирования : UTC 2018-04-26 15: 07: 38
    Дата пометки : UTC 2018-04-26 15: 08: 54
    Цветовой диапазон : Limited
    Основные цвета : BT.709
    Характеристики трансфера : BT.709
    Коэффициенты матрицы : BT.709
    Аудио
    Идентификатор : 2
    Формат : AAC
    Формат/Информация : Advanced Audio Codec
    Профиль формата : LC
    Идентификатор кодека : mp4a-40-2
    Продолжительность : 1 ч. 50 м.
    Вид битрейта : Переменный
    Битрейт : 128 Кбит/сек
    Максимальный битрейт : 133 Кбит/сек
    Каналы : 2 канала
    Расположение каналов : Front: L R
    Частота : 48, 0 КГц
    Частота кадров : 46, 875 кадров/сек (1024 SPF)
    Метод сжатия : С потерями
    Размер потока : 102 Мбайт (9%)
    Заголовок : Дублированный (Лицензия)
    Язык : Russian
    Дата кодирования : UTC 2018-04-26 15: 08: 38
    Дата пометки : UTC 2018-04-26 15: 08: 54
    Текст #1
    Идентификатор : 3
    Формат : Timed Text
    Идентификатор кодека : tx3g
    Продолжительность : 1 ч. 48 м.
    Вид битрейта : Переменный
    Битрейт : 89 бит/сек
    Размер потока : 70, 3 Кбайт (0%)
    Заголовок : Full
    Язык : Russian
    Forced : Нет
    Дата кодирования : UTC 2018-04-26 15: 08: 54
    Дата пометки : UTC 2018-04-26 15: 08: 54
    Текст #2
    Идентификатор : 4
    Формат : Timed Text
    Идентификатор кодека : tx3g
    Продолжительность : 1 ч. 48 м.
    Вид битрейта : Переменный
    Битрейт : 59 бит/сек
    Размер потока : 46, 6 Кбайт (0%)
    Заголовок : Full
    Язык : English
    Forced : Нет
    Дата кодирования : UTC 2018-04-26 15: 08: 54
    Дата пометки : UTC 2018-04-26 15: 08: 54
    Скриншоты:


    Все одноименные релизы в Клубе
    Время раздачи: с 8: 00 до 20: 00 (до появления первых 3-5 скачавших)


    Ограбление по-итальянски/The Italian Job (2003) HDRip [H.264] [MP4|1280x536]
    Рейтинг →
     (голосов: 1, оценка 3/5, голосовать можно 1 раз )

    Другие торренты по теме:

  • Ограбление по-итальянски / The Italian Job (2003) BDRip [H.265 / 1080p-LQ]
  • Ограбление по-Итальянски / The Italian Job (2003) DVDRip
  • Ограбление по-итальянски / The Italian Job (2003) BDRip [H.264 / 1080p-LQ]
  • Ограбление по-итальянски / The Italian Job (2003) HDRip [H.264] [MP4|1920x804]
  • Ограбление по-итальянски / The Italian Job (2003) WEB-DL [H.264 / 1080p] [Open Matte]


    • Комментарии (0):

      Информация

      Информация

        Посетители, находящиеся в группе Гости, не могут оставлять комментарии в данной новости.

        ↓ Меню




        ↓ Опрос

        Вы добавили сайт в закладки?
        Да
        Нет


        Top 10 за месяц (КПК и мобильные)