.
Авторизация | Регистрация
Хочешь лучшие торренты? Добавь свой email!
Добавить

Торрент скачать бесплатно

  • support: webmaster@btracker.org
» » Обливион / Oblivion (2013) HDRip [H.264] [MP4|1280x536] торрент скачать бесплатно

    Обливион / Oblivion (2013) HDRip [H.264] [MP4|1280x536] торрент скачать бесплатно

    Опубликовал: Админ | Дата: 27-04-2018, 05:00 | .torrent скачали: 0

    Обливион / Oblivion (2013) HDRip [H.264] [MP4|1280x536]Производство: США
    Жанр: Фантастика, Боевик, Триллер, Приключения
    Режиссер: Джозеф Косински
    Продюсер: Питер Чернин, Дилан Кларк, Дункан Хендерсон
    Актеры: Том Круз, Андреа Райзборо, Ольга Куриленко, Морган Фриман, Мелисса Лео, Николай Костер-Вальдау, Зои Белл

    Описание

    Земля, пережившая войну с инопланетными захватчиками, опустела; остатки человечества готовятся покинуть непригодную для жизни планету. Главный герой — техник по обслуживанию дронов — находит разбившийся корабль NASA, команда которого погибает у него на глазах. Ему удаётся спасти лишь одну женщину — и вскоре он понимает, что это перевернёт его жизнь.

    Возраст: 12+ (зрителям, достигшим 12 лет)
    Рейтинг MPAA: PG-13 (детям до 13 лет просмотр нежелателен)
    Дата мировой премьеры: 26 марта 2013
    Дата российской премьеры: 11 апреля 2013
    Продолжительность: 02: 04: 42
    Качество видео: HDRip
    Перевод: Дублированный (Лицензия)
    Субтитры: Русские (полные), Английские (полные)
    Видео: AVC/H.264, 1280x536, ~1058 Kbps
    Аудио: AAC, 2 ch, ~128 Kbps

    Общее
    Полное имя : E: Download3Обливион 2013 720p.mp4
    Формат : MPEG-4
    Профиль формата : Base Media
    Идентификатор кодека : isom (isom/avc1)
    Размер файла : 1, 04 Гбайт
    Продолжительность : 2 ч. 4 м.
    Режим общего битрейта : Переменный
    Общий поток : 1189 Кбит/сек
    Дата кодирования : UTC 2018-03-18 14: 28: 43
    Дата пометки : UTC 2018-03-18 14: 28: 43
    Видео
    Идентификатор : 1
    Формат : AVC
    Формат/Информация : Advanced Video Codec
    Профиль формата : High@L3.1
    Настройки формата : CABAC/1 Ref Frames
    Параметр CABAC формата : Да
    Параметр RefFrames формата : 1 кадр
    Параметр GOP формата : M=1, N=60
    Идентификатор кодека : avc1
    Идентификатор кодека/Информация : Advanced Video Coding
    Продолжительность : 2 ч. 4 м.
    Битрейт : 1058 Кбит/сек
    Максимальный битрейт : 6888 Кбит/сек
    Ширина : 1280 пикселей
    Высота : 536 пикселей
    Соотношение сторон : 2, 40: 1
    Режим частоты кадров : Постоянный
    Частота кадров : 23, 976 (24000/1001) кадра/сек
    Цветовое пространство : YUV
    Субдискретизация насыщенности : 4: 2: 0
    Битовая глубина : 8 бит
    Тип развёртки : Прогрессивная
    Бит/(Пиксели*Кадры) : 0.064
    Размер потока : 943 Мбайт (89%)
    Дата кодирования : UTC 2018-03-18 14: 28: 43
    Дата пометки : UTC 2018-03-18 14: 30: 48
    Цветовой диапазон : Limited
    Основные цвета : BT.709
    Характеристики трансфера : BT.709
    Коэффициенты матрицы : BT.709
    Аудио
    Идентификатор : 2
    Формат : AAC
    Формат/Информация : Advanced Audio Codec
    Профиль формата : LC
    Идентификатор кодека : mp4a-40-2
    Продолжительность : 2 ч. 4 м.
    Вид битрейта : Переменный
    Битрейт : 128 Кбит/сек
    Максимальный битрейт : 134 Кбит/сек
    Каналы : 2 канала
    Расположение каналов : Front: L R
    Частота : 48, 0 КГц
    Частота кадров : 46, 875 кадров/сек (1024 SPF)
    Метод сжатия : С потерями
    Размер потока : 114 Мбайт (11%)
    Заголовок : Дублированный (Лицензия)
    Язык : Russian
    Дата кодирования : UTC 2018-03-18 14: 30: 16
    Дата пометки : UTC 2018-03-18 14: 30: 48
    Текст #1
    Идентификатор : 3
    Формат : Timed Text
    Идентификатор кодека : tx3g
    Продолжительность : 1 ч. 58 м.
    Вид битрейта : Переменный
    Битрейт : 63 бит/сек
    Размер потока : 54, 4 Кбайт (0%)
    Заголовок : Full
    Язык : Russian
    Forced : Нет
    Дата кодирования : UTC 2018-03-18 14: 30: 47
    Дата пометки : UTC 2018-03-18 14: 30: 48
    Текст #2
    Идентификатор : 4
    Формат : Timed Text
    Идентификатор кодека : tx3g
    Продолжительность : 1 ч. 58 м.
    Вид битрейта : Переменный
    Битрейт : 33 бит/сек
    Размер потока : 28, 8 Кбайт (0%)
    Заголовок : Full
    Язык : English
    Forced : Нет
    Дата кодирования : UTC 2018-03-18 14: 30: 47
    Дата пометки : UTC 2018-03-18 14: 30: 48
    Скриншоты:


    Все одноименные релизы в Клубе
    Время раздачи: с 8: 00 до 20: 00 (до появления первых 3-5 скачавших)

    Прямая ссылка скачивания через uTorrent


    Обливион/Oblivion (2013) HDRip [H.264] [MP4|1280x536]
    Рейтинг →
     (голосов: 1, оценка 5/5, голосовать можно 1 раз )

    Другие торренты по теме:

  • Обливион / Oblivion (2013) BDRip [H.264] скачать через торрент бесплатно
  • Обливион / Oblivion (2013) BDRip [H.264 / 1080p] [hand made 60fps] скачать через торрент бесплатно
  • Обливион / Oblivion (2013) BDRip [H.265 / 2160p] [4K]
  • Обливион / Oblivion (2013) BDRip [H.264 / 1080p-LQ]
  • Обливион / Oblivion (2013) UHD BDRemux [H.265 / 2160p] [4K, HDR, 10-bit]
  • Обливион / Oblivion (2013) HDRip [H.264] [MP4|1920x804]


    • Комментарии (0):

      Информация

      Информация

        Посетители, находящиеся в группе Гости, не могут оставлять комментарии в данной новости.

        ↓ Меню




        ↓ Опрос

        Вы добавили сайт в закладки?
        Да
        Нет


        Top 10 за месяц (КПК и мобильные)