.
Авторизация | Регистрация
Хочешь лучшие торренты? Добавь свой email!
Добавить

Торрент скачать бесплатно

  • support: webmaster@btracker.org
» » Леон / Leon (1994) HDRip [H.264] [MP4|1280x536] торрент скачать бесплатно


    Леон / Leon (1994) HDRip [H.264] [MP4|1280x536] торрент скачать бесплатно

    Опубликовал: Админ | Дата: 26-04-2018, 05:00 | .torrent скачали: 2

    Леон / Leon (1994) HDRip [H.264] [MP4|1280x536]Производство: Франция
    Жанр: Триллер, Драма, Криминал
    Режиссер: Люк Бессон
    Продюсер: Клод Бессон, Джон Гарлэнд, Бернард Гренет
    Актеры: Жан Рено, Гэри Олдман, Натали Портман, Дэнни Айелло, Питер Эппел, Уилли Уан Блад, Дон Крич, Кит Э. Гласко, Рэндолф Скотт, Майкл Бадалукко, Эллен Грин, Элизабет Риджен, Карл Дж. Матусович, Фрэнк Сенгер, Эрик Шалье, Люк Бернар, Майвенн Ле Беско, Джесси Кеосян, Джордж Мартин

    Описание

    Профессиональный убийца Леон, не знающий пощады и жалости, знакомится со своей очаровательной соседкой Матильдой, семью которой расстреливают полицейские, замешанные в торговле наркотиками. Благодаря этому знакомству он впервые испытывает чувство любви, но…

    Возраст: 16+ (зрителям, достигшим 16 лет)
    Рейтинг MPAA: R (лицам до 17 лет обязательно присутствие взрослого)
    Дата мировой премьеры: 14 сентября 1994
    Продолжительность: 02: 12: 54
    Качество видео: HDRip
    Перевод: Многоголосый закадровый (Амальгама)
    Субтитры: Русские (полные), Английские (полные)
    Видео: AVC/H.264, 1280x536, ~1131 Kbps
    Аудио: AAC, 2 ch, ~128 Kbps

    Общее
    Полное имя : E: Download3Леон 1994 720p.mp4
    Формат : MPEG-4
    Профиль формата : Base Media
    Идентификатор кодека : isom (isom/avc1)
    Размер файла : 1, 17 Гбайт
    Продолжительность : 2 ч. 12 м.
    Режим общего битрейта : Переменный
    Общий поток : 1263 Кбит/сек
    Дата кодирования : UTC 2018-04-12 08: 03: 24
    Дата пометки : UTC 2018-04-12 08: 03: 24
    Видео
    Идентификатор : 1
    Формат : AVC
    Формат/Информация : Advanced Video Codec
    Профиль формата : High@L3.1
    Настройки формата : CABAC/1 Ref Frames
    Параметр CABAC формата : Да
    Параметр RefFrames формата : 1 кадр
    Идентификатор кодека : avc1
    Идентификатор кодека/Информация : Advanced Video Coding
    Продолжительность : 2 ч. 12 м.
    Битрейт : 1131 Кбит/сек
    Максимальный битрейт : 5500 Кбит/сек
    Ширина : 1280 пикселей
    Высота : 536 пикселей
    Соотношение сторон : 2, 40: 1
    Режим частоты кадров : Постоянный
    Частота кадров : 23, 976 (24000/1001) кадра/сек
    Цветовое пространство : YUV
    Субдискретизация насыщенности : 4: 2: 0
    Битовая глубина : 8 бит
    Тип развёртки : Прогрессивная
    Бит/(Пиксели*Кадры) : 0.069
    Размер потока : 1, 05 Гбайт (90%)
    Дата кодирования : UTC 2018-04-12 08: 03: 24
    Дата пометки : UTC 2018-04-12 08: 04: 42
    Цветовой диапазон : Limited
    Основные цвета : BT.709
    Характеристики трансфера : BT.709
    Коэффициенты матрицы : BT.709
    Аудио
    Идентификатор : 2
    Формат : AAC
    Формат/Информация : Advanced Audio Codec
    Профиль формата : LC
    Идентификатор кодека : mp4a-40-2
    Продолжительность : 2 ч. 12 м.
    Вид битрейта : Переменный
    Битрейт : 128 Кбит/сек
    Максимальный битрейт : 138 Кбит/сек
    Каналы : 2 канала
    Расположение каналов : Front: L R
    Частота : 48, 0 КГц
    Частота кадров : 46, 875 кадров/сек (1024 SPF)
    Метод сжатия : С потерями
    Размер потока : 122 Мбайт (10%)
    Заголовок : Многоголосый закадровый (Амальгама)
    Язык : Russian
    Дата кодирования : UTC 2018-04-12 08: 04: 24
    Дата пометки : UTC 2018-04-12 08: 04: 42
    Текст #1
    Идентификатор : 3
    Формат : Timed Text
    Идентификатор кодека : tx3g
    Продолжительность : 2 ч. 7 м.
    Вид битрейта : Переменный
    Битрейт : 67 бит/сек
    Размер потока : 62, 8 Кбайт (0%)
    Заголовок : Full
    Язык : Russian
    Forced : Нет
    Дата кодирования : UTC 2018-04-12 08: 04: 42
    Дата пометки : UTC 2018-04-12 08: 04: 42
    Текст #2
    Идентификатор : 4
    Формат : Timed Text
    Идентификатор кодека : tx3g
    Продолжительность : 2 ч. 11 м.
    Вид битрейта : Переменный
    Битрейт : 47 бит/сек
    Размер потока : 45, 3 Кбайт (0%)
    Заголовок : Full
    Язык : English
    Forced : Нет
    Дата кодирования : UTC 2018-04-12 08: 04: 42
    Дата пометки : UTC 2018-04-12 08: 04: 42
    Скриншоты:


    Все одноименные релизы в Клубе
    Время раздачи: с 8: 00 до 20: 00 (до появления первых 3-5 скачавших)


    Леон/Leon (1994) HDRip [H.264] [MP4|1280x536]
    Рейтинг →
     (голосов: 1, оценка 5/5, голосовать можно 1 раз )

    Другие торренты по теме:

  • Леон / Leon (1994) BDRip [H.264] [Directors Cut] скачать через торрент бесплатно
  • Леон / Leon (1994) BDRip [1080p] [Directors Cut] скачать через торрент бесплатно
  • Леон / Leon (1994) Blu-ray [H.264 / 1080p] [2-in-1: Theatrical & Directors Cut] скачать через торрент бесплатно
  • Леон / Leon (1994) BDRip [H.264 / 720p] [Theatrical Cut] скачать через торрент бесплатно
  • Леон / Leon (1994) BDRip [H.264 / 1080p] [Theatrical Cut] скачать через торрент бесплатно
  • Леон / Leon (1994) HDRip [International Cut] [Remastered]
  • Леон / Leon (1994) BDRip [H.264 / 1080p] [Directors cut]
  • Леон / Leon (1994) BDRip [H.264 / 1080p-LQ] [International Cut] [Remastered]


    • Комментарии (0):

      Информация

      Информация

        Посетители, находящиеся в группе Гости, не могут оставлять комментарии в данной новости.

        ↓ Меню




        ↓ Опрос

        Вы добавили сайт в закладки?
        Да
        Нет


        Top 10 за месяц (КПК и мобильные)