.
Авторизация | Регистрация
Хочешь лучшие торренты? Добавь свой email!
Добавить

Торрент скачать бесплатно

  • support: webmaster@btracker.org
» » Леон / Leon (1994) HDRip [H.264] [MP4|1920x804] торрент скачать бесплатно


    Леон / Leon (1994) HDRip [H.264] [MP4|1920x804] торрент скачать бесплатно

    Опубликовал: Админ | Дата: 26-04-2018, 05:00 | .torrent скачали: 0

    Леон / Leon (1994) HDRip [H.264] [MP4|1920x804]Производство: Франция
    Жанр: Триллер, Драма, Криминал
    Режиссер: Люк Бессон
    Продюсер: Клод Бессон, Джон Гарлэнд, Бернард Гренет
    Актеры: Жан Рено, Гэри Олдман, Натали Портман, Дэнни Айелло, Питер Эппел, Уилли Уан Блад, Дон Крич, Кит Э. Гласко, Рэндолф Скотт, Майкл Бадалукко, Эллен Грин, Элизабет Риджен, Карл Дж. Матусович, Фрэнк Сенгер, Эрик Шалье, Люк Бернар, Майвенн Ле Беско, Джесси Кеосян, Джордж Мартин

    Описание

    Профессиональный убийца Леон, не знающий пощады и жалости, знакомится со своей очаровательной соседкой Матильдой, семью которой расстреливают полицейские, замешанные в торговле наркотиками. Благодаря этому знакомству он впервые испытывает чувство любви, но…

    Возраст: 16+ (зрителям, достигшим 16 лет)
    Рейтинг MPAA: R (лицам до 17 лет обязательно присутствие взрослого)
    Дата мировой премьеры: 14 сентября 1994
    Продолжительность: 02: 12: 54
    Качество видео: HDRip
    Перевод: Многоголосый закадровый (Амальгама)
    Субтитры: Русские (полные), Английские (полные)
    Видео: AVC/H.264, 1920x804, ~2639 Kbps
    Аудио: AAC, 6 ch, ~384 Kbps

    Общее
    Полное имя : E: Download3Леон 1994 1080p.mp4
    Формат : MPEG-4
    Профиль формата : Base Media
    Идентификатор кодека : isom (isom/avc1/iso6)
    Размер файла : 2, 81 Гбайт
    Продолжительность : 2 ч. 12 м.
    Режим общего битрейта : Переменный
    Общий поток : 3028 Кбит/сек
    Дата кодирования : UTC 2018-04-12 08: 10: 32
    Дата пометки : UTC 2018-04-12 08: 10: 32
    Видео
    Идентификатор : 1
    Формат : AVC
    Формат/Информация : Advanced Video Codec
    Профиль формата : High@L4
    Настройки формата : CABAC/2 Ref Frames
    Параметр CABAC формата : Да
    Параметр RefFrames формата : 2 кадра
    Идентификатор кодека : avc1
    Идентификатор кодека/Информация : Advanced Video Coding
    Продолжительность : 2 ч. 12 м.
    Битрейт : 2639 Кбит/сек
    Максимальный битрейт : 7846 Кбит/сек
    Ширина : 1920 пикселей
    Высота : 804 пикселя
    Соотношение сторон : 2, 40: 1
    Режим частоты кадров : Постоянный
    Частота кадров : 23, 976 (24000/1001) кадра/сек
    Цветовое пространство : YUV
    Субдискретизация насыщенности : 4: 2: 0
    Битовая глубина : 8 бит
    Тип развёртки : Прогрессивная
    Бит/(Пиксели*Кадры) : 0.071
    Размер потока : 2, 45 Гбайт (87%)
    Дата кодирования : UTC 2018-04-12 08: 10: 32
    Дата пометки : UTC 2018-04-12 08: 13: 16
    Цветовой диапазон : Limited
    Основные цвета : BT.709
    Характеристики трансфера : BT.709
    Коэффициенты матрицы : BT.709
    Аудио
    Идентификатор : 2
    Формат : AAC
    Формат/Информация : Advanced Audio Codec
    Профиль формата : LC
    Идентификатор кодека : mp4a-40-2
    Продолжительность : 2 ч. 12 м.
    Вид битрейта : Переменный
    Битрейт : 384 Кбит/сек
    Максимальный битрейт : 415 Кбит/сек
    Каналы : 2 канала
    Channel(s)_Original : 6 каналов
    Расположение каналов : Front: L C R, Side: L R, LFE
    Частота : 48, 0 КГц
    Частота кадров : 46, 875 кадров/сек (1024 SPF)
    Метод сжатия : С потерями
    Размер потока : 366 Мбайт (13%)
    Заголовок : Многоголосый закадровый (Амальгама)
    Язык : Russian
    Дата кодирования : UTC 2018-04-12 08: 12: 48
    Дата пометки : UTC 2018-04-12 08: 13: 16
    Текст #1
    Идентификатор : 3
    Формат : Timed Text
    Идентификатор кодека : tx3g
    Продолжительность : 2 ч. 7 м.
    Вид битрейта : Переменный
    Битрейт : 67 бит/сек
    Размер потока : 62, 8 Кбайт (0%)
    Заголовок : Full
    Язык : Russian
    Forced : Нет
    Дата кодирования : UTC 2018-04-12 08: 13: 16
    Дата пометки : UTC 2018-04-12 08: 13: 16
    Текст #2
    Идентификатор : 4
    Формат : Timed Text
    Идентификатор кодека : tx3g
    Продолжительность : 2 ч. 11 м.
    Вид битрейта : Переменный
    Битрейт : 47 бит/сек
    Размер потока : 45, 3 Кбайт (0%)
    Заголовок : Full
    Язык : English
    Forced : Нет
    Дата кодирования : UTC 2018-04-12 08: 13: 16
    Дата пометки : UTC 2018-04-12 08: 13: 16
    Скриншоты:


    Все одноименные релизы в Клубе
    Время раздачи: с 8: 00 до 20: 00 (до появления первых 3-5 скачавших)


    Леон/Leon (1994) HDRip [H.264] [MP4|1920x804]
    Рейтинг →
     (голосов: 1, оценка 5/5, голосовать можно 1 раз )

    Другие торренты по теме:



      Комментарии (0):

      Информация

      Информация

        Посетители, находящиеся в группе Гости, не могут оставлять комментарии в данной новости.

        ↓ Меню




        ↓ Опрос

        Вы добавили сайт в закладки?
        Да
        Нет


        Top 10 за месяц (КПК и мобильные)

        Кукутики: Полная коллекция / (Kukutiki: Full collection) (2015-2018) WEB-DLRip [H.264] (Серии 1-79 из 79 + Караоке версии 1-16 из 16) [MP4|1280x720]

        (скачиваний: 261)
        Тоботы / Tobot (2010) TVRip [H.264] (Сезон 1-2, серии 1-57 из ) [MP4|720x408]

        (скачиваний: 160)
        Garmin: Дороги России Топо 6.27 [Ru]

        (скачиваний: 139)
        Garmin: City Navigator Russia NTU 2019.10 - HERE [Ru]

        (скачиваний: 130)
        Карты для iGO Europe (Primo, NextGen, Becker и т.д.) 2018.02.24 [Ru / Multi]

        (скачиваний: 112)
        Сборка iGO Primo NextGen 9.19.1.484935 WinCE [Ru / Multi] - навигационный программный комплекс для устройств с WinCE скачать через торрент бесплатно

        (скачиваний: 104)
        NaviTel / Навител Навигатор 9.8.187 [Ru / Multi] (Windows CE)

        (скачиваний: 104)
        Альтернативные скины для Навител v9.8.2 / 9.8.3 / 9.8.19 [Ru]

        (скачиваний: 82)
        Три медведя: Полная коллекция / (The three bears: Full collection) (2016-2018) WEB-DLRip [H.264] (Серии 1-32 из 32 + 1-14 из 14 Караоке версий) [MP4|1280x720]

        (скачиваний: 69)
        Прошивка Android KitKat 4.4.2 (Официальное обновление 01010 Europe (Android 4.4.2) для Alcatel One Touch Idol X+ (04.09.2014) <Ru>) скачать через торрент бесплатно

        (скачиваний: 55)