.
Авторизация | Регистрация
Хочешь лучшие торренты? Добавь свой email!
Добавить

Торрент скачать бесплатно

  • support: webmaster@btracker.org
» » Шестой день / The 6th Day (2000) HDRip [H.264] [MP4|1920x800] торрент скачать бесплатно


    Шестой день / The 6th Day (2000) HDRip [H.264] [MP4|1920x800] торрент скачать бесплатно

    Опубликовал: Админ | Дата: 25-04-2018, 05:00 | .torrent скачали: 0

    Шестой день / The 6th Day (2000) HDRip [H.264] [MP4|1920x800]Производство: США
    Жанр: Фантастика, Боевик, Триллер, Детектив
    Режиссер: Роджер Споттисвуд
    Продюсер: Джон Дэвисон, Майк Медавой, Арнольд Шварценеггер
    Актеры: Арнольд Шварценеггер, Майкл Рапапорт, Тони Голдвин, Майкл Рукер, Сара Уайнтер, Венди Крюсон, Родни Роулэнд, Терри Крюс, Кен Пог, Колин Каннингэм, Роберт Дюваль, Ванда Кэннон, Тейлор Энн Рейд, Дженнифер Гарейс, Дон МакМанус, Стив Вачич, Кристофер Лоуфорд, Марк Брэндон, Элли Харви, Дон С. Дэвис, Крис Каунд

    Описание

    В начале третьего тысячелетия самым суровым законом стал закон Шестого дня. Он запрещал клонирование людей и создание искусственных копий человека. Но огромная подпольная империя вопреки запрету выращивает человечество нового будущего, сотни управляемых теней.
    Налаженная машина преступления не давала сбоев, пока в ее совершенный механизм не вмешалась случайность: пилот вертолета Адам Гибсон неожиданно приоткрыл непроницаемую завесу заговора. Теперь он — последний рубеж обороны, отделяющий цивилизацию от общества зомби.

    Возраст: 16+ (зрителям, достигшим 16 лет)
    Рейтинг MPAA: PG-13 (детям до 13 лет просмотр нежелателен)
    Дата мировой премьеры: 28 октября 2000
    Дата российской премьеры: 22 ноября 2000
    Продолжительность: 02: 03: 34
    Качество видео: HDRip
    Перевод: Дублированный (Лицензия)
    Субтитры: Русские (полные), Английские (полные)
    Видео: AVC/H.264, 1920x800, ~2329 Kbps
    Аудио: AAC, 6 ch, ~384 Kbps

    Общее
    Полное имя : E: Download3Шестой день 2000 1080p.mp4
    Формат : MPEG-4
    Профиль формата : Base Media
    Идентификатор кодека : isom (isom/avc1/iso6)
    Размер файла : 2, 34 Гбайт
    Продолжительность : 2 ч. 3 м.
    Режим общего битрейта : Переменный
    Общий поток : 2717 Кбит/сек
    Дата кодирования : UTC 2018-04-05 07: 54: 32
    Дата пометки : UTC 2018-04-05 07: 54: 32
    Видео
    Идентификатор : 1
    Формат : AVC
    Формат/Информация : Advanced Video Codec
    Профиль формата : High@L4
    Настройки формата : CABAC/2 Ref Frames
    Параметр CABAC формата : Да
    Параметр RefFrames формата : 2 кадра
    Идентификатор кодека : avc1
    Идентификатор кодека/Информация : Advanced Video Coding
    Продолжительность : 2 ч. 3 м.
    Битрейт : 2329 Кбит/сек
    Максимальный битрейт : 9276 Кбит/сек
    Ширина : 1920 пикселей
    Высота : 800 пикселей
    Соотношение сторон : 2, 40: 1
    Режим частоты кадров : Постоянный
    Частота кадров : 23, 976 (24000/1001) кадра/сек
    Цветовое пространство : YUV
    Субдискретизация насыщенности : 4: 2: 0
    Битовая глубина : 8 бит
    Тип развёртки : Прогрессивная
    Бит/(Пиксели*Кадры) : 0.063
    Размер потока : 2, 01 Гбайт (86%)
    Дата кодирования : UTC 2018-04-05 07: 54: 32
    Дата пометки : UTC 2018-04-05 07: 56: 29
    Цветовой диапазон : Limited
    Основные цвета : BT.709
    Характеристики трансфера : BT.709
    Коэффициенты матрицы : BT.709
    Аудио
    Идентификатор : 2
    Формат : AAC
    Формат/Информация : Advanced Audio Codec
    Профиль формата : LC
    Идентификатор кодека : mp4a-40-2
    Продолжительность : 2 ч. 3 м.
    Вид битрейта : Переменный
    Битрейт : 384 Кбит/сек
    Максимальный битрейт : 411 Кбит/сек
    Каналы : 2 канала
    Channel(s)_Original : 6 каналов
    Расположение каналов : Front: L C R, Side: L R, LFE
    Частота : 48, 0 КГц
    Частота кадров : 46, 875 кадров/сек (1024 SPF)
    Метод сжатия : С потерями
    Размер потока : 340 Мбайт (14%)
    Заголовок : Дублированный (Лицензия)
    Язык : Russian
    Дата кодирования : UTC 2018-04-05 07: 56: 13
    Дата пометки : UTC 2018-04-05 07: 56: 29
    Текст #1
    Идентификатор : 3
    Формат : Timed Text
    Идентификатор кодека : tx3g
    Продолжительность : 1 ч. 56 м.
    Вид битрейта : Переменный
    Битрейт : 102 бит/сек
    Размер потока : 86, 4 Кбайт (0%)
    Заголовок : Full
    Язык : Russian
    Forced : Нет
    Дата кодирования : UTC 2018-04-05 07: 56: 29
    Дата пометки : UTC 2018-04-05 07: 56: 29
    Текст #2
    Идентификатор : 4
    Формат : Timed Text
    Идентификатор кодека : tx3g
    Продолжительность : 1 ч. 55 м.
    Вид битрейта : Переменный
    Битрейт : 60 бит/сек
    Размер потока : 51, 1 Кбайт (0%)
    Заголовок : Full
    Язык : English
    Forced : Нет
    Дата кодирования : UTC 2018-04-05 07: 56: 29
    Дата пометки : UTC 2018-04-05 07: 56: 29
    Скриншоты:


    Все одноименные релизы в Клубе
    Время раздачи: с 8: 00 до 20: 00 (до появления первых 3-5 скачавших)


    Шестой день/The 6th Day (2000) HDRip [H.264] [MP4|1920x800]
    Рейтинг →
     (голосов: 1, оценка 4/5, голосовать можно 1 раз )

    Другие торренты по теме:

  • Шестой день, седьмая ночь - Финал / Gackt Live Tour 2004: The Sixth Day and Seventh Night - Final (2004) DVDRip
  • Шестой день / The 6th Day (2000) BDRip [H.265 / 1080p-LQ]
  • Шестой день / The 6th Day (2000) BDRip [H.264 / 720p]
  • Шестой день / The 6th Day (2000) HDRip [H.264] [MP4|1280x534]


    • Комментарии (0):

      Информация

      Информация

        Посетители, находящиеся в группе Гости, не могут оставлять комментарии в данной новости.

        ↓ Меню




        ↓ Опрос

        Вы добавили сайт в закладки?
        Да
        Нет


        Top 10 за месяц (КПК и мобильные)