.
Авторизация | Регистрация
Хочешь лучшие торренты? Добавь свой email!
Добавить

Торрент скачать бесплатно

  • support: webmaster@btracker.org
» » Последняя инспекция (1985) SATRip [H.264] (2 серии из 2) [MP4|712x568@757x568] торрент скачать бесплатно


    Последняя инспекция (1985) SATRip [H.264] (2 серии из 2) [MP4|712x568@757x568] торрент скачать бесплатно

    Опубликовал: Админ | Дата: 23-04-2018, 05:00 | .torrent скачали: 1

    Последняя инспекция (1985) SATRip [H.264] (2 серии из 2) [MP4|712x568@757x568]Производство: СССР, Гостелерадио CCCР, Узбекфильм
    Жанр: Драма, детектив, историко-революционный
    Режиссер: Эдуард Хачатуров
    Актеры: Мурад Раджабов, Виктор Тарасов, Борис Плотников, Борис Токарев (II), Бахтияр Закиров, Михаил Горносталь, Вячеслав Шалевич, Ульмас Алиходжаев, Джавлон Хамраев, Виктор Саитов, Дагун Омаев, Елена Аминова, Хусан Шарипов, Валентина Талызина, Елизавета Солодова, Асаль Ходжаева, Шухрат Иргашев, Игорь Класс, Джамал Хашимов, Иногам Адылов, Раджаб Адашев, Н. Туляганов, Обиджан Юнусов

    Описание

    Действие фильма происходит в 20-е годы ХХ века в Узбекистане. Из Москвы в Ташкент прибывает опытный чекист, чтобы возглавить бригаду местных оперативников. Их задача - раскрыть и ликвидировать банду, совершившую ряд особо опасных преступлений.

    Возраст: этот продукт не был классифицирован
    Продолжительность: 02: 11: 33
    Качество видео: SATRip
    Субтитры: отсутствуют
    Видео: AVC/H.264, 712x568@757x568, ~2242 Kbps
    Аудио: AAC, 2 ch, 192 Kbps

    Общее
    Полное имя : Z: Последняя инспекция (1985) SATRip.mp4
    Формат : MPEG-4
    Профиль формата : JVT
    Идентификатор кодека : avc1 (avc1/mp42)
    Размер файла : 2, 25 Гбайт
    Продолжительность : 2 ч. 11 м.
    Режим общего битрейта : Переменный
    Общий поток : 2447 Кбит/сек
    Дата кодирования : UTC 2016-05-31 21: 11: 58
    Дата пометки : UTC 2016-05-31 21: 11: 58
    Видео
    Идентификатор : 1
    Формат : AVC
    Формат/Информация : Advanced Video Codec
    Профиль формата : High@L3.1
    Настройки формата : CABAC/2 Ref Frames
    Параметр CABAC формата : Да
    Параметр RefFrames формата : 2 кадра
    Параметр GOP формата : M=3, N=30
    Идентификатор кодека : avc1
    Идентификатор кодека/Информация : Advanced Video Coding
    Продолжительность : 2 ч. 11 м.
    Вид битрейта : Переменный
    Битрейт : 2242 Кбит/сек
    Максимальный битрейт : 14, 0 Мбит/сек
    Ширина : 712 пикселей
    Высота : 568 пикселей
    Соотношение сторон : 4: 3
    Режим частоты кадров : Постоянный
    Частота кадров : 25, 000 кадров/сек
    Цветовое пространство : YUV
    Субдискретизация насыщенности : 4: 2: 0
    Битовая глубина : 8 бит
    Тип развёртки : Прогрессивная
    Бит/(Пиксели*Кадры) : 0.222
    Размер потока : 2, 06 Гбайт (92%)
    Язык : English
    Дата кодирования : UTC 2016-05-31 21: 11: 58
    Дата пометки : UTC 2016-05-31 21: 11: 58
    Аудио
    Идентификатор : 2
    Формат : AAC
    Формат/Информация : Advanced Audio Codec
    Профиль формата : LC
    Идентификатор кодека : mp4a-40-2
    Продолжительность : 2 ч. 11 м.
    Продолжительность оригинала : 2 ч. 11 м.
    Вид битрейта : Постоянный
    Битрейт : 192 Кбит/сек
    Каналы : 2 канала
    Расположение каналов : Front: L R
    Частота : 48, 0 КГц
    Частота кадров : 46, 875 кадров/сек (1024 SPF)
    Метод сжатия : С потерями
    Размер потока : 181 Мбайт (8%)
    Размер потока оригинала : 181 Мбайт (8%)
    Язык : English
    Дата кодирования : UTC 2016-05-31 21: 11: 58
    Дата пометки : UTC 2016-05-31 21: 11: 58
    Скриншоты:




    Все одноименные релизы в Клубе
    Время раздачи: С 13: 00 до 23: 00 (до появления первых 3-5 скачавших)


    Последняя инспекция (1985) SATRip [H.264] (2 серии из 2) [MP4|712x568@757x568]
    Рейтинг →
     (голосов: 1, оценка 5/5, голосовать можно 1 раз )

    Другие торренты по теме:

  • The Testament of Sherlock Holmes / Последняя воля Шерлока Холмса (2012) [Ru / En] (1.u) Repack Audioslave
  • Последняя любовь мистера Моргана / Mr. Morgans Last Love (2013) BDRip [576p] iPad
  • Последняя запись 2 / Ragini MMS 2 (2014) HDRip [576p] iPad
  • Последняя песня / The Last Song (2010) HDRip
  • Последняя песня / The Last Song (2010) BDRip [720p]
  • Последняя капля / The Final Straw (2013) WEB-DLRip скачать через торрент бесплатно
  • Последняя остановка / Dont Blink (2014) WEB-DL [H.264 / 720p-LQ] скачать через торрент бесплатно
  • Последняя остановка / Dont Blink (2014) WEB-DLRip


    • Комментарии (0):

      Информация

      Информация

        Посетители, находящиеся в группе Гости, не могут оставлять комментарии в данной новости.

        ↓ Меню




        ↓ Опрос

        Вы добавили сайт в закладки?
        Да
        Нет


        Top 10 за месяц (КПК и мобильные)

        Кукутики: Полная коллекция / (Kukutiki: Full collection) (2015-2018) WEB-DLRip [H.264] (Серии 1-79 из 79 + Караоке версии 1-16 из 16) [MP4|1280x720]

        (скачиваний: 261)
        Тоботы / Tobot (2010) TVRip [H.264] (Сезон 1-2, серии 1-57 из ) [MP4|720x408]

        (скачиваний: 160)
        Garmin: Дороги России Топо 6.27 [Ru]

        (скачиваний: 139)
        Garmin: City Navigator Russia NTU 2019.10 - HERE [Ru]

        (скачиваний: 130)
        Карты для iGO Europe (Primo, NextGen, Becker и т.д.) 2018.02.24 [Ru / Multi]

        (скачиваний: 112)
        Сборка iGO Primo NextGen 9.19.1.484935 WinCE [Ru / Multi] - навигационный программный комплекс для устройств с WinCE скачать через торрент бесплатно

        (скачиваний: 104)
        NaviTel / Навител Навигатор 9.8.187 [Ru / Multi] (Windows CE)

        (скачиваний: 104)
        Альтернативные скины для Навител v9.8.2 / 9.8.3 / 9.8.19 [Ru]

        (скачиваний: 82)
        Три медведя: Полная коллекция / (The three bears: Full collection) (2016-2018) WEB-DLRip [H.264] (Серии 1-32 из 32 + 1-14 из 14 Караоке версий) [MP4|1280x720]

        (скачиваний: 69)
        Прошивка Android KitKat 4.4.2 (Официальное обновление 01010 Europe (Android 4.4.2) для Alcatel One Touch Idol X+ (04.09.2014) <Ru>) скачать через торрент бесплатно

        (скачиваний: 55)