.
Авторизация | Регистрация
Хочешь лучшие торренты? Добавь свой email!
Добавить

Торрент скачать бесплатно

  • support: webmaster@btracker.org
» » Мир входящему (1961) SATRip [H.264] [MP4|696x572@762x572] торрент скачать бесплатно


    Мир входящему (1961) SATRip [H.264] [MP4|696x572@762x572] торрент скачать бесплатно

    Опубликовал: Админ | Дата: 23-04-2018, 05:00 | .torrent скачали: 0

    Мир входящему (1961) SATRip [H.264] [MP4|696x572@762x572]Производство: СССР, Мосфильм
    Жанр: Драма, Военный
    Режиссер: Александр Алов, Владимир Наумов
    Актеры: Александр Демьяненко, Виктор Авдюшко, Станислав Хитров, Лидия Шапоренко, Николай Гринько, Иван Рыжов, Николай Тимофеев, К. Филиппова, Изольда Извицкая, Андрей Файт, Вера Бокадоро, Виктор Кольцов, Степан Крылов, Михаил Логвинов, Эрвин Кнаусмюллер, Владимир Маренков

    Описание

    Выпускник военного училища лейтенант Ивлев попал на фронт в последний день войны. Он мечтал о подвигах, о боях на передовой - а вместо этого получил скучнейшее задание: доставить в тыловой госпиталь беременную немку. Казалось бы чего проще. Однако события ближайших часов заставят Ивлева пережить такое, что он навсегда проститься с мальчишескими представлениями о войне...

    Возраст: 12+ (зрителям, достигшим 12 лет)
    Продолжительность: 01: 24: 13
    Качество видео: SATRip
    Субтитры: отсутствуют
    Видео: AVC/H.264, 696x572@762x572, ~2235 Kbps
    Аудио: AAC, 2 ch, 192 Kbps

    Общее
    Полное имя : Z: Мир входящему (1961) SATRip.mp4
    Формат : MPEG-4
    Профиль формата : JVT
    Идентификатор кодека : avc1 (avc1/mp42)
    Размер файла : 1, 43 Гбайт
    Продолжительность : 1 ч. 24 м.
    Режим общего битрейта : Переменный
    Общий поток : 2439 Кбит/сек
    Дата кодирования : UTC 2016-05-31 21: 04: 47
    Дата пометки : UTC 2016-05-31 21: 04: 47
    Видео
    Идентификатор : 1
    Формат : AVC
    Формат/Информация : Advanced Video Codec
    Профиль формата : High@L3.1
    Настройки формата : CABAC/2 Ref Frames
    Параметр CABAC формата : Да
    Параметр RefFrames формата : 2 кадра
    Параметр GOP формата : M=3, N=30
    Идентификатор кодека : avc1
    Идентификатор кодека/Информация : Advanced Video Coding
    Продолжительность : 1 ч. 24 м.
    Вид битрейта : Переменный
    Битрейт : 2235 Кбит/сек
    Максимальный битрейт : 14, 0 Мбит/сек
    Ширина : 696 пикселей
    Высота : 572 пикселя
    Соотношение сторон : 4: 3
    Соотношение сторон в оригинале : 4: 3
    Режим частоты кадров : Постоянный
    Частота кадров : 25, 000 кадров/сек
    Цветовое пространство : YUV
    Субдискретизация насыщенности : 4: 2: 0
    Битовая глубина : 8 бит
    Тип развёртки : Прогрессивная
    Бит/(Пиксели*Кадры) : 0.225
    Размер потока : 1, 31 Гбайт (92%)
    Язык : English
    Дата кодирования : UTC 2016-05-31 21: 04: 47
    Дата пометки : UTC 2016-05-31 21: 04: 47
    Аудио
    Идентификатор : 2
    Формат : AAC
    Формат/Информация : Advanced Audio Codec
    Профиль формата : LC
    Идентификатор кодека : mp4a-40-2
    Продолжительность : 1 ч. 24 м.
    Продолжительность оригинала : 1 ч. 24 м.
    Вид битрейта : Постоянный
    Битрейт : 192 Кбит/сек
    Каналы : 2 канала
    Расположение каналов : Front: L R
    Частота : 48, 0 КГц
    Частота кадров : 46, 875 кадров/сек (1024 SPF)
    Метод сжатия : С потерями
    Размер потока : 116 Мбайт (8%)
    Размер потока оригинала : 116 Мбайт (8%)
    Язык : English
    Дата кодирования : UTC 2016-05-31 21: 04: 47
    Дата пометки : UTC 2016-05-31 21: 04: 47
    Скриншоты:




    Все одноименные релизы в Клубе
    Время раздачи: С 13: 00 до 23: 00 (до появления первых 3-5 скачавших)


    Мир входящему (1961) SATRip [H.264] [MP4|696x572@762x572]
    Рейтинг →
     (голосов: 1, оценка 4/5, голосовать можно 1 раз )

    Другие торренты по теме:

  • Мир входящему (1961) DVB


    • Комментарии (0):

      Информация

      Информация

        Посетители, находящиеся в группе Гости, не могут оставлять комментарии в данной новости.

        ↓ Меню




        ↓ Опрос

        Вы добавили сайт в закладки?
        Да
        Нет


        Top 10 за месяц (КПК и мобильные)

        Кукутики: Полная коллекция / (Kukutiki: Full collection) (2015-2018) WEB-DLRip [H.264] (Серии 1-79 из 79 + Караоке версии 1-16 из 16) [MP4|1280x720]

        (скачиваний: 261)
        Тоботы / Tobot (2010) TVRip [H.264] (Сезон 1-2, серии 1-57 из ) [MP4|720x408]

        (скачиваний: 160)
        Garmin: Дороги России Топо 6.27 [Ru]

        (скачиваний: 139)
        Garmin: City Navigator Russia NTU 2019.10 - HERE [Ru]

        (скачиваний: 130)
        Карты для iGO Europe (Primo, NextGen, Becker и т.д.) 2018.02.24 [Ru / Multi]

        (скачиваний: 112)
        Сборка iGO Primo NextGen 9.19.1.484935 WinCE [Ru / Multi] - навигационный программный комплекс для устройств с WinCE скачать через торрент бесплатно

        (скачиваний: 104)
        NaviTel / Навител Навигатор 9.8.187 [Ru / Multi] (Windows CE)

        (скачиваний: 104)
        Альтернативные скины для Навител v9.8.2 / 9.8.3 / 9.8.19 [Ru]

        (скачиваний: 82)
        Три медведя: Полная коллекция / (The three bears: Full collection) (2016-2018) WEB-DLRip [H.264] (Серии 1-32 из 32 + 1-14 из 14 Караоке версий) [MP4|1280x720]

        (скачиваний: 69)
        Прошивка Android KitKat 4.4.2 (Официальное обновление 01010 Europe (Android 4.4.2) для Alcatel One Touch Idol X+ (04.09.2014) <Ru>) скачать через торрент бесплатно

        (скачиваний: 55)