.
Авторизация | Регистрация
Хочешь лучшие торренты? Добавь свой email!
Добавить

Торрент скачать бесплатно

  • support: webmaster@btracker.org
» » Рассмешите клоуна (1984) SATRip [H.264] (2 серии из 2) [MP4|720x536] торрент скачать бесплатно


    Рассмешите клоуна (1984) SATRip [H.264] (2 серии из 2) [MP4|720x536] торрент скачать бесплатно

    Опубликовал: Админ | Дата: 23-04-2018, 05:00 | .torrent скачали: 3

    Рассмешите клоуна (1984) SATRip [H.264] (2 серии из 2) [MP4|720x536]Производство: СССР, киностудия им. А. Довженко
    Жанр: Комедия, Мелодрама
    Режиссер: Николай Рашеев
    Актеры: Владимир Кремена, Галина Польских, Георгий Тейх, Владимир Шевченко (III), Людмила Шевченко (II), Евгений Биляуэр, Владимир Дещук, Владимир Кашеваров, Светлана Кашеварова, Владимир Титов, Пётр Меркурьев, Людмила Лобза, Евгений Биляуер

    Описание

    История чудаковатого, но преданного своей профессии клоуна Вовчика и обыкновенной женщины Гали, которая, попав случайно в цирк, осталась работать там так называемой подсадкой.

    Возраст: 6+ (зрителям, достигшим 6 лет)
    Продолжительность: 02: 10: 32
    Качество видео: SATRip
    Субтитры: отсутствуют
    Видео: AVC/H.264, 720x536, ~2265 Kbps
    Аудио: AAC, 2 ch, 192 Kbps

    Общее
    Полное имя : Z: Рассмешите клоуна (1984) SATRip.mp4
    Формат : MPEG-4
    Профиль формата : JVT
    Идентификатор кодека : avc1 (avc1/mp42)
    Размер файла : 2, 25 Гбайт
    Продолжительность : 2 ч. 10 м.
    Режим общего битрейта : Переменный
    Общий поток : 2472 Кбит/сек
    Дата кодирования : UTC 2016-05-31 21: 39: 00
    Дата пометки : UTC 2016-05-31 21: 39: 00
    Видео
    Идентификатор : 1
    Формат : AVC
    Формат/Информация : Advanced Video Codec
    Профиль формата : High@L3.1
    Настройки формата : CABAC/2 Ref Frames
    Параметр CABAC формата : Да
    Параметр RefFrames формата : 2 кадра
    Параметр GOP формата : M=3, N=30
    Идентификатор кодека : avc1
    Идентификатор кодека/Информация : Advanced Video Coding
    Продолжительность : 2 ч. 10 м.
    Вид битрейта : Переменный
    Битрейт : 2265 Кбит/сек
    Максимальный битрейт : 17, 0 Мбит/сек
    Ширина : 720 пикселей
    Высота : 536 пикселей
    Соотношение сторон : 4: 3
    Соотношение сторон в оригинале : 4: 3
    Режим частоты кадров : Постоянный
    Частота кадров : 29, 970 (30000/1001) кадров/сек
    Цветовое пространство : YUV
    Субдискретизация насыщенности : 4: 2: 0
    Битовая глубина : 8 бит
    Тип развёртки : Прогрессивная
    Бит/(Пиксели*Кадры) : 0.196
    Размер потока : 2, 07 Гбайт (92%)
    Язык : English
    Дата кодирования : UTC 2016-05-31 21: 39: 00
    Дата пометки : UTC 2016-05-31 21: 39: 00
    Аудио
    Идентификатор : 2
    Формат : AAC
    Формат/Информация : Advanced Audio Codec
    Профиль формата : LC
    Идентификатор кодека : mp4a-40-2
    Продолжительность : 2 ч. 10 м.
    Продолжительность оригинала : 2 ч. 10 м.
    Вид битрейта : Постоянный
    Битрейт : 192 Кбит/сек
    Каналы : 2 канала
    Расположение каналов : Front: L R
    Частота : 48, 0 КГц
    Частота кадров : 46, 875 кадров/сек (1024 SPF)
    Метод сжатия : С потерями
    Размер потока : 179 Мбайт (8%)
    Размер потока оригинала : 179 Мбайт (8%)
    Язык : English
    Дата кодирования : UTC 2016-05-31 21: 39: 00
    Дата пометки : UTC 2016-05-31 21: 39: 00


    Рассмешите клоуна (1984) SATRip [H.264] (2 серии из 2) [MP4|720x536]
    Рейтинг →
     (голосов: 1, оценка 5/5, голосовать можно 1 раз )

    Другие торренты по теме:



      Комментарии (0):

      Информация

      Информация

        Посетители, находящиеся в группе Гости, не могут оставлять комментарии в данной новости.

        ↓ Меню




        ↓ Опрос

        Вы добавили сайт в закладки?
        Да
        Нет


        Top 10 за месяц (КПК и мобильные)