.
Авторизация | Регистрация
Хочешь лучшие торренты? Добавь свой email!
Добавить

Торрент скачать бесплатно

  • support: webmaster@btracker.org
» » Семь / Se7en (1995) HDRip [H.264] [MP4|1920x800] торрент скачать бесплатно


    Семь / Se7en (1995) HDRip [H.264] [MP4|1920x800] торрент скачать бесплатно

    Опубликовал: Админ | Дата: 23-04-2018, 05:00 | .torrent скачали: 0

    Семь / Se7en (1995) HDRip [H.264] [MP4|1920x800]Производство: США
    Жанр: Триллер, Драма, Криминал, Детектив
    Режиссер: Дэвид Финчер
    Продюсер: Филлис Карлайл, Арнольд Копельсон, Стивен Браун
    Актеры: Брэд Питт, Морган Фриман, Гвинет Пэлтроу, Кевин Спейси, Р. Ли Эрми, Эндрю Кевин Уокер, Дэниэл Зацапа, Джон Кассини, Боб Макк, Питер Кромби, Рег Э. Кэти

    Описание

    Детектив Уильям Сомерсет — ветеран уголовного розыска, мечтающий уйти на пенсию и уехать подальше от города и грешных обитателей. За 7 дней до пенсии на Сомерсета сваливаются две неприятности: молодой напарник Миллс и особо изощренное убийство. Острый ум опытного сыщика сразу определяет, что за этим преступлением, скорее всего, последуют другие. Новости подтверждают его догадку. Поняв, что убийца наказывает свои жертвы за совершенные ими смертные грехи, детектив встает перед выбором: вернуться к работе либо уйти и передать дело своему менее опытному напарнику?

    Возраст: 18+ (зрителям, достигшим 18 лет. запрещено для детей)
    Рейтинг MPAA: R (лицам до 17 лет обязательно присутствие взрослого)
    Дата мировой премьеры: 15 сентября 1995
    Продолжительность: 02: 06: 49
    Качество видео: HDRip
    Перевод: Многоголосый закадровый (Позитив-Мультимедия)
    Субтитры: Русские (форсированные, полные), Английские (полные)
    Видео: AVC/H.264, 1920x800, ~1752 Kbps
    Аудио: AAC, 6 ch, ~384 Kbps

    Общее
    Полное имя : E: Download3Семь 1995 1080p.mp4
    Формат : MPEG-4
    Профиль формата : Base Media
    Идентификатор кодека : isom (isom/avc1/iso6)
    Размер файла : 1, 90 Гбайт
    Продолжительность : 2 ч. 6 м.
    Режим общего битрейта : Переменный
    Общий поток : 2140 Кбит/сек
    Дата кодирования : UTC 2018-04-14 16: 43: 00
    Дата пометки : UTC 2018-04-14 16: 43: 00
    Видео
    Идентификатор : 1
    Формат : AVC
    Формат/Информация : Advanced Video Codec
    Профиль формата : High@L4
    Настройки формата : CABAC/2 Ref Frames
    Параметр CABAC формата : Да
    Параметр RefFrames формата : 2 кадра
    Идентификатор кодека : avc1
    Идентификатор кодека/Информация : Advanced Video Coding
    Продолжительность : 2 ч. 6 м.
    Битрейт : 1752 Кбит/сек
    Максимальный битрейт : 8576 Кбит/сек
    Ширина : 1920 пикселей
    Высота : 800 пикселей
    Соотношение сторон : 2, 40: 1
    Режим частоты кадров : Постоянный
    Частота кадров : 23, 976 (24000/1001) кадра/сек
    Цветовое пространство : YUV
    Субдискретизация насыщенности : 4: 2: 0
    Битовая глубина : 8 бит
    Тип развёртки : Прогрессивная
    Бит/(Пиксели*Кадры) : 0.048
    Размер потока : 1, 55 Гбайт (82%)
    Дата кодирования : UTC 2018-04-14 16: 43: 00
    Дата пометки : UTC 2018-04-14 16: 45: 46
    Цветовой диапазон : Limited
    Основные цвета : BT.709
    Характеристики трансфера : BT.709
    Коэффициенты матрицы : BT.709
    Аудио
    Идентификатор : 2
    Формат : AAC
    Формат/Информация : Advanced Audio Codec
    Профиль формата : LC
    Идентификатор кодека : mp4a-40-2
    Продолжительность : 2 ч. 6 м.
    Вид битрейта : Переменный
    Битрейт : 384 Кбит/сек
    Максимальный битрейт : 444 Кбит/сек
    Каналы : 2 канала
    Channel(s)_Original : 6 каналов
    Расположение каналов : Front: L C R, Side: L R, LFE
    Частота : 48, 0 КГц
    Частота кадров : 46, 875 кадров/сек (1024 SPF)
    Метод сжатия : С потерями
    Размер потока : 348 Мбайт (18%)
    Заголовок : Многоголосый закадровый (Позитив-Мультимедия)
    Язык : Russian
    Дата кодирования : UTC 2018-04-14 16: 45: 18
    Дата пометки : UTC 2018-04-14 16: 45: 46
    Текст #1
    Идентификатор : 3
    Формат : Timed Text
    Идентификатор кодека : tx3g
    Продолжительность : 1 ч. 33 м.
    Вид битрейта : Переменный
    Битрейт : 3 бит/сек
    Размер потока : 2, 07 Кбайт (0%)
    Заголовок : Forced
    Язык : Russian
    Forced : Нет
    Дата кодирования : UTC 2018-04-14 16: 45: 46
    Дата пометки : UTC 2018-04-14 16: 45: 46
    Текст #2
    Идентификатор : 4
    Формат : Timed Text
    Идентификатор кодека : tx3g
    Продолжительность : 2 ч. 1 м.
    Вид битрейта : Переменный
    Битрейт : 100 бит/сек
    Размер потока : 89, 0 Кбайт (0%)
    Заголовок : Full
    Язык : Russian
    Forced : Нет
    Дата кодирования : UTC 2018-04-14 16: 45: 46
    Дата пометки : UTC 2018-04-14 16: 45: 46
    Текст #3
    Идентификатор : 5
    Формат : Timed Text
    Идентификатор кодека : tx3g
    Продолжительность : 2 ч. 1 м.
    Вид битрейта : Переменный
    Битрейт : 73 бит/сек
    Размер потока : 65, 1 Кбайт (0%)
    Заголовок : Full
    Язык : English
    Forced : Нет
    Дата кодирования : UTC 2018-04-14 16: 45: 46
    Дата пометки : UTC 2018-04-14 16: 45: 46
    Скриншоты:


    Все одноименные релизы в Клубе
    Время раздачи: с 8: 00 до 20: 00 (до появления первых 3-5 скачавших)


    Семь/Se7en (1995) HDRip [H.264] [MP4|1920x800]
    Рейтинг →
     (голосов: 1, оценка 5/5, голосовать можно 1 раз )

    Другие торренты по теме:

  • Шесть дней, семь ночей / Six Days Seven Nights (1998) HDRip [H.264 / 1080p-LQ]
  • Семь / Se7en (1995) HDRip [H.264] [MP4|1280x534]


    • Комментарии (0):

      Информация

      Информация

        Посетители, находящиеся в группе Гости, не могут оставлять комментарии в данной новости.

        ↓ Меню




        ↓ Опрос

        Вы добавили сайт в закладки?
        Да
        Нет


        Top 10 за месяц (КПК и мобильные)