.
Авторизация | Регистрация
Хочешь лучшие торренты? Добавь свой email!
Добавить

Торрент скачать бесплатно

  • support: webmaster@btracker.org
» » Призрачный гонщик / Ghost Rider (2007) HDRip [H.264] [MP4|1920x800] [Extended Cut] торрент скачать бесплатно


    Призрачный гонщик / Ghost Rider (2007) HDRip [H.264] [MP4|1920x800] [Extended Cut] торрент скачать бесплатно

    Опубликовал: Админ | Дата: 22-04-2018, 05:00 | .torrent скачали: 1

    Призрачный гонщик / Ghost Rider (2007) HDRip [H.264] [MP4|1920x800] [Extended Cut]Производство: США, Австралия
    Жанр: Фэнтези, Боевик, Триллер
    Режиссер: Марк Стивен Джонсон
    Продюсер: Ави Арад, Майкл Де Лука, Гари Фостер
    Актеры: Николас Кейдж, Ева Мендес, Сэм Эллиотт, Уэс Бентли, Питер Фонда, Мэтт Лонг, Ракель Алесси, Бретт Каллен, Донал Лог

    Описание

    Чтобы спасти своего отца от верной гибели, байкер-экстремал Джонни Блэйз заключает сделку с дьяволом, объектом которой является его бессмертная душа. Проходят годы, и дьявол предъявляет свои права по контракту. Он превращает Джонни в Призрачного Гонщика, агента потусторонних сил, обладающего сверхчеловеческими способностями.

    Возраст: 12+ (зрителям, достигшим 12 лет)
    Рейтинг MPAA: PG-13 (детям до 13 лет просмотр нежелателен)
    Дата мировой премьеры: 15 января 2007
    Дата российской премьеры: 15 февраля 2007
    Продолжительность: 02: 03: 25
    Качество видео: HDRip
    Перевод: Дублированный (Лицензия) + Профессиональный (двухголосый, закадровый) на расширенные сцены
    Субтитры: Русские (форсированные, полные), Английские (полные)
    Видео: AVC/H.264, 1920x800, ~1941 Kbps
    Аудио: AAC, 6 ch, ~384 Kbps

    Общее
    Полное имя : E: Download3Призрачный гонщик 2007 1080p.mp4
    Формат : MPEG-4
    Профиль формата : Base Media
    Идентификатор кодека : isom (isom/avc1/iso6)
    Размер файла : 2, 01 Гбайт
    Продолжительность : 2 ч. 3 м.
    Режим общего битрейта : Переменный
    Общий поток : 2327 Кбит/сек
    Дата кодирования : UTC 2018-04-05 08: 49: 35
    Дата пометки : UTC 2018-04-05 08: 49: 35
    Видео
    Идентификатор : 1
    Формат : AVC
    Формат/Информация : Advanced Video Codec
    Профиль формата : High@L4
    Настройки формата : CABAC/2 Ref Frames
    Параметр CABAC формата : Да
    Параметр RefFrames формата : 2 кадра
    Идентификатор кодека : avc1
    Идентификатор кодека/Информация : Advanced Video Coding
    Продолжительность : 2 ч. 3 м.
    Битрейт : 1941 Кбит/сек
    Максимальный битрейт : 8133 Кбит/сек
    Ширина : 1920 пикселей
    Высота : 800 пикселей
    Соотношение сторон : 2, 40: 1
    Режим частоты кадров : Постоянный
    Частота кадров : 23, 976 (24000/1001) кадра/сек
    Цветовое пространство : YUV
    Субдискретизация насыщенности : 4: 2: 0
    Битовая глубина : 8 бит
    Тип развёртки : Прогрессивная
    Бит/(Пиксели*Кадры) : 0.053
    Размер потока : 1, 67 Гбайт (83%)
    Дата кодирования : UTC 2018-04-05 08: 49: 35
    Дата пометки : UTC 2018-04-05 08: 52: 03
    Цветовой диапазон : Limited
    Основные цвета : BT.709
    Характеристики трансфера : BT.709
    Коэффициенты матрицы : BT.709
    Аудио
    Идентификатор : 2
    Формат : AAC
    Формат/Информация : Advanced Audio Codec
    Профиль формата : LC
    Идентификатор кодека : mp4a-40-2
    Продолжительность : 2 ч. 2 м.
    Вид битрейта : Переменный
    Битрейт : 384 Кбит/сек
    Максимальный битрейт : 412 Кбит/сек
    Каналы : 2 канала
    Channel(s)_Original : 6 каналов
    Расположение каналов : Front: L C R, Side: L R, LFE
    Частота : 48, 0 КГц
    Частота кадров : 46, 875 кадров/сек (1024 SPF)
    Метод сжатия : С потерями
    Размер потока : 337 Мбайт (16%)
    Заголовок : Дублированный (Лицензия) + Профессиональный (двухголосый, закадровый) на расширенные сцены
    Язык : Russian
    Дата кодирования : UTC 2018-04-05 08: 51: 36
    Дата пометки : UTC 2018-04-05 08: 52: 03
    Текст #1
    Идентификатор : 3
    Формат : Timed Text
    Идентификатор кодека : tx3g
    Продолжительность : 1 ч. 56 м.
    Вид битрейта : Переменный
    Битрейт : 7 бит/сек
    Размер потока : 5, 69 Кбайт (0%)
    Заголовок : Forced
    Язык : Russian
    Forced : Нет
    Дата кодирования : UTC 2018-04-05 08: 52: 03
    Дата пометки : UTC 2018-04-05 08: 52: 03
    Текст #2
    Идентификатор : 4
    Формат : Timed Text
    Идентификатор кодека : tx3g
    Продолжительность : 1 ч. 56 м.
    Вид битрейта : Переменный
    Битрейт : 68 бит/сек
    Размер потока : 58, 2 Кбайт (0%)
    Заголовок : Full
    Язык : Russian
    Forced : Нет
    Дата кодирования : UTC 2018-04-05 08: 52: 03
    Дата пометки : UTC 2018-04-05 08: 52: 03
    Текст #3
    Идентификатор : 5
    Формат : Timed Text
    Идентификатор кодека : tx3g
    Продолжительность : 1 ч. 55 м.
    Вид битрейта : Переменный
    Битрейт : 44 бит/сек
    Размер потока : 37, 3 Кбайт (0%)
    Заголовок : Full
    Язык : English
    Forced : Нет
    Дата кодирования : UTC 2018-04-05 08: 52: 03
    Дата пометки : UTC 2018-04-05 08: 52: 03
    Скриншоты:


    Все одноименные релизы в Клубе
    Время раздачи: с 8: 00 до 20: 00 (до появления первых 3-5 скачавших)


    Призрачный гонщик/Ghost Rider (2007) HDRip [H.264] [MP4|1920x800] [Extended Cut]
    Рейтинг →
     (голосов: 1, оценка 3/5, голосовать можно 1 раз )

    Другие торренты по теме:

  • Призрачный гонщик / Ghost Rider (2007) BDRip [720p] [Extended Cut] [hand made 60fps] скачать через торрент бесплатно
  • Призрачный гонщик 2 / Ghost Rider: Spirit of Vengeance (2011) BDRip [720p] [hand made 60fps] скачать через торрент бесплатно
  • Призрачный гонщик 2 / Ghost Rider: Spirit of Vengeance (2012) AC3 5.1 [Solod]
  • Призрачный гонщик / Ghost Rider (2007) AC3 5.1 [Extended Cut] [Solod]
  • Призрачный гонщик / Ghost Rider (2007) DVDRip
  • Призрачный гонщик / Ghost Rider (2007) HDRip [H.264] [MP4|1280x534] [Extended Cut]


    • Комментарии (0):

      Информация

      Информация

        Посетители, находящиеся в группе Гости, не могут оставлять комментарии в данной новости.

        ↓ Меню




        ↓ Опрос

        Вы добавили сайт в закладки?
        Да
        Нет


        Top 10 за месяц (КПК и мобильные)