.
Авторизация | Регистрация
Хочешь лучшие торренты? Добавь свой email!
Добавить

Торрент скачать бесплатно

  • support: webmaster@btracker.org
» » Встреча на переправе (1963) VHSRip [H.264] [MP4|640x480] торрент скачать бесплатно


    Встреча на переправе (1963) VHSRip [H.264] [MP4|640x480] торрент скачать бесплатно

    Опубликовал: Админ | Дата: 21-04-2018, 05:00 | .torrent скачали: 2

    Встреча на переправе (1963) VHSRip [H.264] [MP4|640x480]Платформа или формат: MP4 640x480
    Производство: СССР, Мосфильм
    Жанр: Драма, Короткометражный
    Режиссер: Гавриил Егиазаров
    Актеры: Инга Шантырь, Геннадий Фролов, Игорь Цветков (II), Всеволод Санаев, Борис Новиков, Пётр Любешкин, Ольга Маркина, Елена Максимова, Раднэр Муратов

    Описание

    Окончилась война. Демобилизованный солдат Чепурнов (Геннадий Фролов) едет к своей невесте Варе Карповой, которую знает по переписке. По пути на пароме Чепурнов знакомится с перевозчицей Клавдией. Молодая женщина знает его невесту и знает то, что Валентина писала не только Чепурнову. Но об этом она молчит — ей нравится задумчивый солдат, и она не хочет его расстраивать. А солдату нравится Клавдия, и он уже все знает про нее и знает то, что она одна растит сына. Но он едет к Валентине, потому что обещал. Долго Чепурнов там не задержится...

    Возраст: этот продукт не был классифицирован
    Качество видео: VHSRip
    Субтитры: отсутствуют
    Видео: AVC/H.264, 640x480, ~1644 Kbps
    Аудио: AAC, 2 ch, 192 Kbps

    Общее
    Полное имя : Z: Встреча на переправе (1963) VHSRip.mp4
    Формат : MPEG-4
    Профиль формата : JVT
    Идентификатор кодека : avc1 (avc1/mp42)
    Размер файла : 624 Мбайт
    Продолжительность : 47 м. 12 с.
    Режим общего битрейта : Переменный
    Общий поток : 1848 Кбит/сек
    Дата кодирования : UTC 2016-05-31 21: 35: 58
    Дата пометки : UTC 2016-05-31 21: 35: 58
    Видео
    Идентификатор : 1
    Формат : AVC
    Формат/Информация : Advanced Video Codec
    Профиль формата : High@L3.1
    Настройки формата : CABAC/2 Ref Frames
    Параметр CABAC формата : Да
    Параметр RefFrames формата : 2 кадра
    Параметр GOP формата : M=3, N=30
    Идентификатор кодека : avc1
    Идентификатор кодека/Информация : Advanced Video Coding
    Продолжительность : 47 м. 12 с.
    Вид битрейта : Переменный
    Битрейт : 1644 Кбит/сек
    Максимальный битрейт : 17, 0 Мбит/сек
    Ширина : 640 пикселей
    Высота : 480 пикселей
    Соотношение сторон : 4: 3
    Режим частоты кадров : Постоянный
    Частота кадров : 25, 000 кадров/сек
    Цветовое пространство : YUV
    Субдискретизация насыщенности : 4: 2: 0
    Битовая глубина : 8 бит
    Тип развёртки : Прогрессивная
    Бит/(Пиксели*Кадры) : 0.214
    Размер потока : 555 Мбайт (89%)
    Язык : English
    Дата кодирования : UTC 2016-05-31 21: 35: 58
    Дата пометки : UTC 2016-05-31 21: 35: 58
    Аудио
    Идентификатор : 2
    Формат : AAC
    Формат/Информация : Advanced Audio Codec
    Профиль формата : LC
    Идентификатор кодека : mp4a-40-2
    Продолжительность : 47 м. 12 с.
    Продолжительность оригинала : 47 м. 12 с.
    Вид битрейта : Постоянный
    Битрейт : 192 Кбит/сек
    Каналы : 2 канала
    Расположение каналов : Front: L R
    Частота : 48, 0 КГц
    Частота кадров : 46, 875 кадров/сек (1024 SPF)
    Метод сжатия : С потерями
    Размер потока : 64, 8 Мбайт (10%)
    Размер потока оригинала : 64, 8 Мбайт (10%)
    Язык : English
    Дата кодирования : UTC 2016-05-31 21: 35: 58
    Дата пометки : UTC 2016-05-31 21: 35: 58
    Скриншоты:




    Все одноименные релизы в Клубе
    Время раздачи: С 13: 00 до 23: 00 (до появления первых 3-5 скачавших)


    Встреча на переправе (1963) VHSRip [H.264] [MP4|640x480]
    Рейтинг →
     (голосов: 1, оценка 3/5, голосовать можно 1 раз )

    Другие торренты по теме:

  • Поздняя встреча (1978) TVRip [H.264]
  • Одна встреча / Une rencontre (2014) BDRemux [1080p]
  • Одна встреча / Une rencontre (2014) BDRip [H.264]
  • Случайная встреча / Juhuslik kohtumine (1961) TVRip [EST / Rus Sub] скачать через торрент бесплатно
  • Неслучайная встреча (2014) IPTVRip (сезон 1, серии 1 из 8) (обновляемая) скачать через торрент бесплатно
  • Встреча выпускников 2: Похороны / Klassefesten 2: Begravelsen (2014) HDRip [VO]
  • Встреча выпускников 2: Похороны / Klassefesten 2: Begravelsen (2014) BDRip [720p] [VO]
  • Встреча выпускников 2: Похороны / Klassefesten 2: Begravelsen (2014) BDRip [1080p] [VO]


    • Комментарии (0):

      Информация

      Информация

        Посетители, находящиеся в группе Гости, не могут оставлять комментарии в данной новости.

        ↓ Меню




        ↓ Опрос

        Вы добавили сайт в закладки?
        Да
        Нет


        Top 10 за месяц (КПК и мобильные)