.
Авторизация | Регистрация
Хочешь лучшие торренты? Добавь свой email!
Добавить

Торрент скачать бесплатно

  • support: webmaster@btracker.org
» » Крепкий орешек 2 / Die Hard 2 (1990) HDRip [H.264] [MP4|1920x812] торрент скачать бесплатно


    Крепкий орешек 2 / Die Hard 2 (1990) HDRip [H.264] [MP4|1920x812] торрент скачать бесплатно

    Опубликовал: Админ | Дата: 19-04-2018, 05:00 | .torrent скачали: 0

    Крепкий орешек 2 / Die Hard 2 (1990) HDRip [H.264] [MP4|1920x812]Производство: США
    Жанр: Боевик, Триллер
    Режиссер: Ренни Харлин
    Продюсер: Чарльз Гордон, Лоуренс Гордон, Джоэл Силвер
    Актеры: Брюс Уиллис, Уильям Сэдлер, Бонни Беделиа, Франко Неро, Деннис Франц, Уильям Этертон, Джон Эймос, Тони Гэниос, Фред Долтон Томпсон, Питер Нельсон, Том Бауэр, Шила МакКарти, Дон Харви, Арт Эванс, Реджинальд ВелДжонсон, Кен Болдуин

    Описание

    В канун Рождества группа террористов захватила международный аэропорт и теперь удерживает тысячи путешествующих в качестве заложников. Террористы — банда отступников из первоклассно вооруженных коммандос, возглавляемых одержимым жестокостью офицером. Их цель — спасти наркобарона. Банда подготовлена ко всевозможным случайностям, за исключением одной — встречи с Джоном Макклейном. Брюс Уиллис возвращается в роли супергероя-полицейского, который сражается не только с террористами, но и с некомпетентным шефом полиции аэропорта, тупоголовым начальником антитеррористического подразделения и страшным снежным бураном.

    Возраст: 16+ (зрителям, достигшим 16 лет)
    Рейтинг MPAA: R (лицам до 17 лет обязательно присутствие взрослого)
    Дата мировой премьеры: 2 июля 1990
    Продолжительность: 02: 03: 23
    Качество видео: HDRip
    Перевод: Дублированный (Лицензия)
    Субтитры: Русские (форсированные, полные), Английские (полные)
    Видео: AVC/H.264, 1920x812, ~2089 Kbps
    Аудио: AAC, 6 ch, ~384 Kbps

    Общее
    Полное имя : E: Download2Крепкий орешек 2 1990 1080p.mp4
    Формат : MPEG-4
    Профиль формата : Base Media
    Идентификатор кодека : isom (isom/avc1/iso6)
    Размер файла : 2, 13 Гбайт
    Продолжительность : 2 ч. 3 м.
    Режим общего битрейта : Переменный
    Общий поток : 2476 Кбит/сек
    Дата кодирования : UTC 2018-04-14 08: 08: 29
    Дата пометки : UTC 2018-04-14 08: 08: 29
    Видео
    Идентификатор : 1
    Формат : AVC
    Формат/Информация : Advanced Video Codec
    Профиль формата : High@L4
    Настройки формата : CABAC/2 Ref Frames
    Параметр CABAC формата : Да
    Параметр RefFrames формата : 2 кадра
    Идентификатор кодека : avc1
    Идентификатор кодека/Информация : Advanced Video Coding
    Продолжительность : 2 ч. 3 м.
    Битрейт : 2089 Кбит/сек
    Максимальный битрейт : 7296 Кбит/сек
    Ширина : 1920 пикселей
    Высота : 812 пикселей
    Соотношение сторон : 2, 35: 1
    Режим частоты кадров : Постоянный
    Частота кадров : 23, 976 (24000/1001) кадра/сек
    Цветовое пространство : YUV
    Субдискретизация насыщенности : 4: 2: 0
    Битовая глубина : 8 бит
    Тип развёртки : Прогрессивная
    Бит/(Пиксели*Кадры) : 0.056
    Размер потока : 1, 80 Гбайт (84%)
    Дата кодирования : UTC 2018-04-14 08: 08: 29
    Дата пометки : UTC 2018-04-14 08: 10: 13
    Цветовой диапазон : Limited
    Основные цвета : BT.709
    Характеристики трансфера : BT.709
    Коэффициенты матрицы : BT.709
    Аудио
    Идентификатор : 2
    Формат : AAC
    Формат/Информация : Advanced Audio Codec
    Профиль формата : LC
    Идентификатор кодека : mp4a-40-2
    Продолжительность : 2 ч. 3 м.
    Вид битрейта : Переменный
    Битрейт : 384 Кбит/сек
    Максимальный битрейт : 407 Кбит/сек
    Каналы : 2 канала
    Channel(s)_Original : 6 каналов
    Расположение каналов : Front: L C R, Side: L R, LFE
    Частота : 48, 0 КГц
    Частота кадров : 46, 875 кадров/сек (1024 SPF)
    Метод сжатия : С потерями
    Размер потока : 339 Мбайт (16%)
    Заголовок : Дублированный (Лицензия)
    Язык : Russian
    Дата кодирования : UTC 2018-04-14 08: 09: 53
    Дата пометки : UTC 2018-04-14 08: 10: 13
    Текст #1
    Идентификатор : 3
    Формат : Timed Text
    Идентификатор кодека : tx3g
    Продолжительность : 1 ч. 18 м.
    Вид битрейта : Переменный
    Битрейт : 0 бит/сек
    Размер потока : 114 байт (0%)
    Заголовок : Forced
    Язык : Russian
    Forced : Нет
    Дата кодирования : UTC 2018-04-14 08: 10: 13
    Дата пометки : UTC 2018-04-14 08: 10: 13
    Текст #2
    Идентификатор : 4
    Формат : Timed Text
    Идентификатор кодека : tx3g
    Продолжительность : 1 ч. 59 м.
    Вид битрейта : Переменный
    Битрейт : 112 бит/сек
    Размер потока : 97, 9 Кбайт (0%)
    Заголовок : Full
    Язык : Russian
    Forced : Нет
    Дата кодирования : UTC 2018-04-14 08: 10: 13
    Дата пометки : UTC 2018-04-14 08: 10: 13
    Текст #3
    Идентификатор : 5
    Формат : Timed Text
    Идентификатор кодека : tx3g
    Продолжительность : 2 ч. 3 м.
    Вид битрейта : Переменный
    Битрейт : 60 бит/сек
    Размер потока : 54, 1 Кбайт (0%)
    Заголовок : Full
    Язык : English
    Forced : Нет
    Дата кодирования : UTC 2018-04-14 08: 10: 13
    Дата пометки : UTC 2018-04-14 08: 10: 13
    Скриншоты:


    Все одноименные релизы в Клубе
    Время раздачи: с 8: 00 до 20: 00 (до появления первых 3-5 скачавших)


    Крепкий орешек 2/Die Hard 2 (1990) HDRip [H.264] [MP4|1920x812]
    Рейтинг →
     (голосов: 1, оценка 4/5, голосовать можно 1 раз )

    Другие торренты по теме:

  • Крепкий орешек / Die Hard (1988) BDRip [H.264] скачать через торрент бесплатно
  • Крепкий орешек 2 / Die Hard 2 (1990) BDRip [H.264] скачать через торрент бесплатно
  • Крепкий орешек 4.0 / Live Free or Die Hard (2007) BDRip [H.264] скачать через торрент бесплатно
  • Крепкий орешек 3: Возмездие / Die Hard: With a Vengeance (1995) BDRip [H.264] скачать через торрент бесплатно
  • Крепкий орешек 4.0 / Live Free or Die Hard (2007) BDRip [H.264] скачать через торрент бесплатно
  • Крепкий орешек 3: Возмездие / Die Hard: With a Vengeance (1995) BDRip [H.264] скачать через торрент бесплатно
  • Крепкий орешек 2 / Die Hard 2 (1990) BDRip [H.264] скачать через торрент бесплатно
  • Крепкий орешек / Die Hard (1988) BDRip [H.264] скачать через торрент бесплатно


    • Комментарии (0):

      Информация

      Информация

        Посетители, находящиеся в группе Гости, не могут оставлять комментарии в данной новости.

        ↓ Меню




        ↓ Опрос

        Вы добавили сайт в закладки?
        Да
        Нет


        Top 10 за месяц (КПК и мобильные)