.
Авторизация | Регистрация
Хочешь лучшие торренты? Добавь свой email!
Добавить

Торрент скачать бесплатно

  • support: webmaster@btracker.org
» » Крепкий орешек 3: Возмездие / Die Hard with a Vengeance (1995) HDRip [H.264] [MP4|1920x816] торрент скачать бесплатно


    Крепкий орешек 3: Возмездие / Die Hard with a Vengeance (1995) HDRip [H.264] [MP4|1920x816] торрент скачать бесплатно

    Опубликовал: Админ | Дата: 19-04-2018, 05:00 | .torrent скачали: 0

    Крепкий орешек 3: Возмездие / Die Hard with a Vengeance (1995) HDRip [H.264] [MP4|1920x816]Производство: США
    Жанр: Боевик, Триллер, Приключения
    Режиссер: Джон МакТирнан
    Продюсер: Джон МакТирнан, Майкл Тадросс, Базз Фейтшанс
    Актеры: Брюс Уиллис, Джереми Айронс, Сэмюэл Л. Джексон, Грэхэм Грин, Коллин Кэмп, Ларри Бриггман, Энтони Пек, Николас Уаймэн, Сэм Филлипс, Кевин Чамберлен, Шарон Вашингтон, Майкл Александер Джексон, Эдвин Ходж, Роберт Седжвик, Билл Крист, Энтони Томас, Гленн Херман

    Описание

    На улицах Нью-Йорка офицер полиции Джон МакКлейн видел все, что только возможно. На этот раз для того, чтобы отомстить МакКлейну, террорист Саймон, виртуозно устраивающий взрывы, заставляет героя — полицейского играть в смертельную игру. Ставка — город Нью-Йорк. МакКлейн вынужден метаться по городу, следуя телефонным указаниям Саймона, готового разнести пол Нью-Йорка за малейшее отклонение от его требований. И в то время, как вся полиция города занята поисками террористов, преступники похищают золотой запас Национального банка США. У МакКлейна бывали неудачные деньки за годы службы в полиции, но сегодня у него, похоже, будет исключительно скверный день…

    Возраст: 16+ (зрителям, достигшим 16 лет)
    Рейтинг MPAA: R (лицам до 17 лет обязательно присутствие взрослого)
    Дата мировой премьеры: 15 мая 1995
    Продолжительность: 02: 08: 31
    Качество видео: HDRip
    Перевод: Многоголосый закадровый (R5)
    Субтитры: Русские (форсированные, полные), Английские (полные)
    Видео: AVC/H.264, 1920x816, ~3232 Kbps
    Аудио: AAC, 6 ch, ~384 Kbps

    Общее
    Полное имя : E: Download3Крепкий орешек 3 Возмездие 1995 1080p.mp4
    Формат : MPEG-4
    Профиль формата : Base Media
    Идентификатор кодека : isom (isom/avc1/iso6)
    Размер файла : 3, 25 Гбайт
    Продолжительность : 2 ч. 8 м.
    Режим общего битрейта : Переменный
    Общий поток : 3620 Кбит/сек
    Дата кодирования : UTC 2018-04-13 15: 33: 50
    Дата пометки : UTC 2018-04-13 15: 33: 50
    Видео
    Идентификатор : 1
    Формат : AVC
    Формат/Информация : Advanced Video Codec
    Профиль формата : High@L4
    Настройки формата : CABAC/2 Ref Frames
    Параметр CABAC формата : Да
    Параметр RefFrames формата : 2 кадра
    Идентификатор кодека : avc1
    Идентификатор кодека/Информация : Advanced Video Coding
    Продолжительность : 2 ч. 8 м.
    Битрейт : 3232 Кбит/сек
    Максимальный битрейт : 7324 Кбит/сек
    Ширина : 1920 пикселей
    Высота : 816 пикселей
    Соотношение сторон : 2, 35: 1
    Режим частоты кадров : Постоянный
    Частота кадров : 23, 976 (24000/1001) кадра/сек
    Цветовое пространство : YUV
    Субдискретизация насыщенности : 4: 2: 0
    Битовая глубина : 8 бит
    Тип развёртки : Прогрессивная
    Бит/(Пиксели*Кадры) : 0.086
    Размер потока : 2, 90 Гбайт (89%)
    Дата кодирования : UTC 2018-04-13 15: 33: 50
    Дата пометки : UTC 2018-04-13 15: 39: 17
    Цветовой диапазон : Limited
    Основные цвета : BT.709
    Характеристики трансфера : BT.709
    Коэффициенты матрицы : BT.709
    Аудио
    Идентификатор : 2
    Формат : AAC
    Формат/Информация : Advanced Audio Codec
    Профиль формата : LC
    Идентификатор кодека : mp4a-40-2
    Продолжительность : 2 ч. 8 м.
    Вид битрейта : Переменный
    Битрейт : 384 Кбит/сек
    Максимальный битрейт : 404 Кбит/сек
    Каналы : 2 канала
    Channel(s)_Original : 6 каналов
    Расположение каналов : Front: L C R, Side: L R, LFE
    Частота : 48, 0 КГц
    Частота кадров : 46, 875 кадров/сек (1024 SPF)
    Метод сжатия : С потерями
    Размер потока : 354 Мбайт (11%)
    Заголовок : Многоголосый закадровый (R5)
    Язык : Russian
    Дата кодирования : UTC 2018-04-13 15: 38: 45
    Дата пометки : UTC 2018-04-13 15: 39: 17
    Текст #1
    Идентификатор : 3
    Формат : Timed Text
    Идентификатор кодека : tx3g
    Продолжительность : 1 ч. 53 м.
    Вид битрейта : Переменный
    Битрейт : 1 бит/сек
    Размер потока : 718 байт (0%)
    Заголовок : Forced
    Язык : Russian
    Forced : Нет
    Дата кодирования : UTC 2018-04-13 15: 39: 17
    Дата пометки : UTC 2018-04-13 15: 39: 17
    Текст #2
    Идентификатор : 4
    Формат : Timed Text
    Идентификатор кодека : tx3g
    Продолжительность : 2 ч. 1 м.
    Вид битрейта : Переменный
    Битрейт : 121 бит/сек
    Размер потока : 107 Кбайт (0%)
    Заголовок : Full
    Язык : Russian
    Forced : Нет
    Дата кодирования : UTC 2018-04-13 15: 39: 17
    Дата пометки : UTC 2018-04-13 15: 39: 17
    Текст #3
    Идентификатор : 5
    Формат : Timed Text
    Идентификатор кодека : tx3g
    Продолжительность : 2 ч. 1 м.
    Вид битрейта : Переменный
    Битрейт : 85 бит/сек
    Размер потока : 75, 2 Кбайт (0%)
    Заголовок : Full
    Язык : English
    Forced : Нет
    Дата кодирования : UTC 2018-04-13 15: 39: 17
    Дата пометки : UTC 2018-04-13 15: 39: 17
    Скриншоты:


    Все одноименные релизы в Клубе
    Время раздачи: с 8: 00 до 20: 00 (до появления первых 3-5 скачавших)


    Крепкий орешек 3: Возмездие/Die Hard with a Vengeance (1995) HDRip [H.264] [MP4|1920x816]
    Рейтинг →
     (голосов: 1, оценка 5/5, голосовать можно 1 раз )

    Другие торренты по теме:

  • Крепкий орешек / Die Hard (1988) BDRip [H.264] скачать через торрент бесплатно
  • Крепкий орешек 2 / Die Hard 2 (1990) BDRip [H.264] скачать через торрент бесплатно
  • Крепкий орешек 4.0 / Live Free or Die Hard (2007) BDRip [H.264] скачать через торрент бесплатно
  • Крепкий орешек 3: Возмездие / Die Hard: With a Vengeance (1995) BDRip [H.264] скачать через торрент бесплатно
  • Крепкий орешек 4.0 / Live Free or Die Hard (2007) BDRip [H.264] скачать через торрент бесплатно
  • Крепкий орешек 3: Возмездие / Die Hard: With a Vengeance (1995) BDRip [H.264] скачать через торрент бесплатно
  • Крепкий орешек 2 / Die Hard 2 (1990) BDRip [H.264] скачать через торрент бесплатно
  • Крепкий орешек / Die Hard (1988) BDRip [H.264] скачать через торрент бесплатно


    • Комментарии (0):

      Информация

      Информация

        Посетители, находящиеся в группе Гости, не могут оставлять комментарии в данной новости.

        ↓ Меню




        ↓ Опрос

        Вы добавили сайт в закладки?
        Да
        Нет


        Top 10 за месяц (КПК и мобильные)