.
Авторизация | Регистрация
Хочешь лучшие торренты? Добавь свой email!
Добавить

Торрент скачать бесплатно

  • support: webmaster@btracker.org
» » Крепкий орешек / Die Hard (1988) HDRip [H.264] [MP4|1280x542] торрент скачать бесплатно


    Крепкий орешек / Die Hard (1988) HDRip [H.264] [MP4|1280x542] торрент скачать бесплатно

    Опубликовал: Админ | Дата: 17-04-2018, 05:00 | .torrent скачали: 0

    Крепкий орешек / Die Hard (1988) HDRip [H.264] [MP4|1280x542]Производство: США
    Жанр: Боевик, Триллер, Криминал
    Режиссер: Джон МакТирнан
    Продюсер: Лоуренс Гордон, Джоэл Силвер, Чарльз Гордон
    Актеры: Брюс Уиллис, Бонни Беделиа, Уильям Атертон, Уильям Сэдлер, Франко Неро, Джон Амос, Дэннис Франц, Арт Эванс, Том Бауэр, Шила МакКарти, Дон Харви, Питер Нельсон, Роберт Патрик, Майкл Каннингэм, Джон Легуизамо, Том Верика, Джон Костелло, Вонди Куртис-Холл

    Описание

    В суперсовременном небоскребе Лос-Анджелеса полицейский Джон Макклейн ведет смертельную схватку с бандой политических террористов, взявших в заложники два десятка человек, в число которых попадает и его жена. Началось все с того, что парень приехал в город к жене, оказался на рождественском приеме, а кончилось настоящей войной…

    Возраст: 16+ (зрителям, достигшим 16 лет)
    Рейтинг MPAA: R (лицам до 17 лет обязательно присутствие взрослого)
    Дата мировой премьеры: 12 июля 1988
    Продолжительность: 02: 12: 10
    Качество видео: HDRip
    Перевод: Дублированный (Лицензия)
    Субтитры: Русские (форсированные, полные), Английские (полные)
    Видео: AVC/H.264, 1280x542, ~1045 Kbps
    Аудио: AAC, 2 ch, ~128 Kbps

    Общее
    Полное имя : E: Download2Крепкий орешек 1988 720p.mp4
    Формат : MPEG-4
    Профиль формата : Base Media
    Идентификатор кодека : isom (isom/avc1)
    Размер файла : 1, 09 Гбайт
    Продолжительность : 2 ч. 12 м.
    Режим общего битрейта : Переменный
    Общий поток : 1176 Кбит/сек
    Дата кодирования : UTC 2018-04-13 08: 36: 12
    Дата пометки : UTC 2018-04-13 08: 36: 12
    Видео
    Идентификатор : 1
    Формат : AVC
    Формат/Информация : Advanced Video Codec
    Профиль формата : High@L3.1
    Настройки формата : CABAC/1 Ref Frames
    Параметр CABAC формата : Да
    Параметр RefFrames формата : 1 кадр
    Идентификатор кодека : avc1
    Идентификатор кодека/Информация : Advanced Video Coding
    Продолжительность : 2 ч. 12 м.
    Битрейт : 1045 Кбит/сек
    Максимальный битрейт : 5884 Кбит/сек
    Ширина : 1280 пикселей
    Высота : 542 пикселя
    Соотношение сторон : 2, 35: 1
    Режим частоты кадров : Постоянный
    Частота кадров : 23, 976 (24000/1001) кадра/сек
    Цветовое пространство : YUV
    Субдискретизация насыщенности : 4: 2: 0
    Битовая глубина : 8 бит
    Тип развёртки : Прогрессивная
    Бит/(Пиксели*Кадры) : 0.063
    Размер потока : 988 Мбайт (89%)
    Дата кодирования : UTC 2018-04-13 08: 36: 12
    Дата пометки : UTC 2018-04-13 08: 37: 10
    Цветовой диапазон : Limited
    Основные цвета : BT.709
    Характеристики трансфера : BT.709
    Коэффициенты матрицы : BT.709
    Аудио
    Идентификатор : 2
    Формат : AAC
    Формат/Информация : Advanced Audio Codec
    Профиль формата : LC
    Идентификатор кодека : mp4a-40-2
    Продолжительность : 2 ч. 12 м.
    Вид битрейта : Переменный
    Битрейт : 128 Кбит/сек
    Максимальный битрейт : 135 Кбит/сек
    Каналы : 2 канала
    Расположение каналов : Front: L R
    Частота : 48, 0 КГц
    Частота кадров : 46, 875 кадров/сек (1024 SPF)
    Метод сжатия : С потерями
    Размер потока : 121 Мбайт (11%)
    Заголовок : Дублированный (Лицензия)
    Язык : Russian
    Дата кодирования : UTC 2018-04-13 08: 36: 54
    Дата пометки : UTC 2018-04-13 08: 37: 10
    Текст #1
    Идентификатор : 3
    Формат : Timed Text
    Идентификатор кодека : tx3g
    Продолжительность : 1 ч. 39 м.
    Вид битрейта : Переменный
    Битрейт : 2 бит/сек
    Размер потока : 1, 35 Кбайт (0%)
    Заголовок : Forced
    Язык : Russian
    Forced : Нет
    Дата кодирования : UTC 2018-04-13 08: 37: 09
    Дата пометки : UTC 2018-04-13 08: 37: 10
    Текст #2
    Идентификатор : 4
    Формат : Timed Text
    Идентификатор кодека : tx3g
    Продолжительность : 2 ч. 12 м.
    Вид битрейта : Переменный
    Битрейт : 70 бит/сек
    Размер потока : 67, 8 Кбайт (0%)
    Заголовок : Full
    Язык : Russian
    Forced : Нет
    Дата кодирования : UTC 2018-04-13 08: 37: 10
    Дата пометки : UTC 2018-04-13 08: 37: 10
    Текст #3
    Идентификатор : 5
    Формат : Timed Text
    Идентификатор кодека : tx3g
    Продолжительность : 2 ч. 12 м.
    Вид битрейта : Переменный
    Битрейт : 56 бит/сек
    Размер потока : 54, 3 Кбайт (0%)
    Заголовок : Full
    Язык : English
    Forced : Нет
    Дата кодирования : UTC 2018-04-13 08: 37: 10
    Дата пометки : UTC 2018-04-13 08: 37: 10
    Скриншоты:


    Все одноименные релизы в Клубе
    Время раздачи: с 8: 00 до 20: 00 (до появления первых 3-5 скачавших)


    Крепкий орешек/Die Hard (1988) HDRip [H.264] [MP4|1280x542]
    Рейтинг →
     (голосов: 1, оценка 5/5, голосовать можно 1 раз )

    Другие торренты по теме:

  • Крепкий орешек / Die Hard (1988) BDRip [H.264] скачать через торрент бесплатно
  • Крепкий орешек 2 / Die Hard 2 (1990) BDRip [H.264] скачать через торрент бесплатно
  • Крепкий орешек 4.0 / Live Free or Die Hard (2007) BDRip [H.264] скачать через торрент бесплатно
  • Крепкий орешек 3: Возмездие / Die Hard: With a Vengeance (1995) BDRip [H.264] скачать через торрент бесплатно
  • Крепкий орешек 4.0 / Live Free or Die Hard (2007) BDRip [H.264] скачать через торрент бесплатно
  • Крепкий орешек 3: Возмездие / Die Hard: With a Vengeance (1995) BDRip [H.264] скачать через торрент бесплатно
  • Крепкий орешек 2 / Die Hard 2 (1990) BDRip [H.264] скачать через торрент бесплатно
  • Крепкий орешек / Die Hard (1988) BDRip [H.264] скачать через торрент бесплатно


    • Комментарии (0):

      Информация

      Информация

        Посетители, находящиеся в группе Гости, не могут оставлять комментарии в данной новости.

        ↓ Меню




        ↓ Опрос

        Вы добавили сайт в закладки?
        Да
        Нет


        Top 10 за месяц (КПК и мобильные)

        Кукутики: Полная коллекция / (Kukutiki: Full collection) (2015-2018) WEB-DLRip [H.264] (Серии 1-79 из 79 + Караоке версии 1-16 из 16) [MP4|1280x720]

        (скачиваний: 261)
        Тоботы / Tobot (2010) TVRip [H.264] (Сезон 1-2, серии 1-57 из ) [MP4|720x408]

        (скачиваний: 160)
        Garmin: Дороги России Топо 6.27 [Ru]

        (скачиваний: 141)
        Garmin: City Navigator Russia NTU 2019.10 - HERE [Ru]

        (скачиваний: 132)
        Карты для iGO Europe (Primo, NextGen, Becker и т.д.) 2018.02.24 [Ru / Multi]

        (скачиваний: 113)
        NaviTel / Навител Навигатор 9.8.187 [Ru / Multi] (Windows CE)

        (скачиваний: 104)
        Сборка iGO Primo NextGen 9.19.1.484935 WinCE [Ru / Multi] - навигационный программный комплекс для устройств с WinCE скачать через торрент бесплатно

        (скачиваний: 104)
        Альтернативные скины для Навител v9.8.2 / 9.8.3 / 9.8.19 [Ru]

        (скачиваний: 82)
        Три медведя: Полная коллекция / (The three bears: Full collection) (2016-2018) WEB-DLRip [H.264] (Серии 1-32 из 32 + 1-14 из 14 Караоке версий) [MP4|1280x720]

        (скачиваний: 69)
        Прошивка Android KitKat 4.4.2 (Официальное обновление 01010 Europe (Android 4.4.2) для Alcatel One Touch Idol X+ (04.09.2014) <Ru>) скачать через торрент бесплатно

        (скачиваний: 55)