.
Авторизация | Регистрация
Хочешь лучшие торренты? Добавь свой email!
Добавить

Торрент скачать бесплатно

  • support: webmaster@btracker.org
» » Бойцовский клуб / Fight Club (1999) HDRip [H.264] [MP4|1280x534] торрент скачать бесплатно


    Бойцовский клуб / Fight Club (1999) HDRip [H.264] [MP4|1280x534] торрент скачать бесплатно

    Опубликовал: Админ | Дата: 16-04-2018, 05:00 | .torrent скачали: 3

    Бойцовский клуб / Fight Club (1999) HDRip [H.264] [MP4|1280x534]Производство: США, Германия
    Жанр: Триллер, Драма, Криминал
    Режиссер: Дэвид Финчер
    Продюсер: Росс Грэйсон Белл, Арт Линсон, Сиан Чаффин
    Актеры: Эдвард Нортон, Брэд Питт, Хелена Бонем-Картер, Мит Лоаф, Зэк Гренье, Ричмонд Аркетт, Дэвид Эндрюс, Джордж Магвайр, Евгения Бондуран, Кристина Сабот

    Описание

    Терзаемый хронической бессонницей и отчаянно пытающийся вырваться из мучительно скучной жизни, клерк встречает некоего Тайлера Дардена, харизматического торговца мылом с извращенной философией. Тайлер уверен, что самосовершенствование — удел слабых, а саморазрушение — единственное, ради чего стоит жить.
    Пройдет немного времени, и вот уже главные герои лупят друг друга почем зря на стоянке перед баром, и очищающий мордобой доставляет им высшее блаженство. Приобщая других мужчин к простым радостям физической жестокости, они основывают тайный Бойцовский Клуб, который имеет огромный успех. Но в концовке фильма всех ждет шокирующее открытие, которое может привести к непредсказуемым событиям…

    Возраст: 18+ (зрителям, достигшим 18 лет. запрещено для детей)
    Рейтинг MPAA: R (лицам до 17 лет обязательно присутствие взрослого)
    Дата мировой премьеры: 10 сентября 1999
    Дата российской премьеры: 13 января 2000
    Продолжительность: 02: 19: 09
    Качество видео: HDRip
    Перевод: Дублированный (Лицензия)
    Субтитры: Русские (форсированные, полные), Английские (полные)
    Видео: AVC/H.264, 1280x534, ~930 Kbps
    Аудио: AAC, 2 ch, ~128 Kbps

    Общее
    Полное имя : E: Download2Бойцовский клуб 1999 720p.mp4
    Формат : MPEG-4
    Профиль формата : Base Media
    Идентификатор кодека : isom (isom/avc1)
    Размер файла : 1, 03 Гбайт
    Продолжительность : 2 ч. 19 м.
    Режим общего битрейта : Переменный
    Общий поток : 1061 Кбит/сек
    Дата кодирования : UTC 2018-04-11 09: 02: 55
    Дата пометки : UTC 2018-04-11 09: 02: 55
    Видео
    Идентификатор : 1
    Формат : AVC
    Формат/Информация : Advanced Video Codec
    Профиль формата : High@L3.1
    Настройки формата : CABAC/1 Ref Frames
    Параметр CABAC формата : Да
    Параметр RefFrames формата : 1 кадр
    Идентификатор кодека : avc1
    Идентификатор кодека/Информация : Advanced Video Coding
    Продолжительность : 2 ч. 19 м.
    Битрейт : 930 Кбит/сек
    Максимальный битрейт : 5403 Кбит/сек
    Ширина : 1280 пикселей
    Высота : 534 пикселя
    Соотношение сторон : 2, 40: 1
    Режим частоты кадров : Постоянный
    Частота кадров : 23, 976 (24000/1001) кадра/сек
    Цветовое пространство : YUV
    Субдискретизация насыщенности : 4: 2: 0
    Битовая глубина : 8 бит
    Тип развёртки : Прогрессивная
    Бит/(Пиксели*Кадры) : 0.057
    Размер потока : 925 Мбайт (88%)
    Дата кодирования : UTC 2018-04-11 09: 02: 55
    Дата пометки : UTC 2018-04-11 09: 04: 33
    Цветовой диапазон : Limited
    Основные цвета : BT.709
    Характеристики трансфера : BT.709
    Коэффициенты матрицы : BT.709
    Аудио
    Идентификатор : 2
    Формат : AAC
    Формат/Информация : Advanced Audio Codec
    Профиль формата : LC
    Идентификатор кодека : mp4a-40-2
    Продолжительность : 2 ч. 19 м.
    Вид битрейта : Переменный
    Битрейт : 128 Кбит/сек
    Максимальный битрейт : 136 Кбит/сек
    Каналы : 2 канала
    Расположение каналов : Front: L R
    Частота : 48, 0 КГц
    Частота кадров : 46, 875 кадров/сек (1024 SPF)
    Метод сжатия : С потерями
    Размер потока : 128 Мбайт (12%)
    Заголовок : Дублированный (Лицензия)
    Язык : Russian
    Дата кодирования : UTC 2018-04-11 09: 04: 08
    Дата пометки : UTC 2018-04-11 09: 04: 33
    Текст #1
    Идентификатор : 3
    Формат : Timed Text
    Идентификатор кодека : tx3g
    Продолжительность : 2 ч. 18 м.
    Вид битрейта : Переменный
    Битрейт : 2 бит/сек
    Размер потока : 1, 98 Кбайт (0%)
    Заголовок : Forced
    Язык : Russian
    Forced : Нет
    Дата кодирования : UTC 2018-04-11 09: 04: 33
    Дата пометки : UTC 2018-04-11 09: 04: 33
    Текст #2
    Идентификатор : 4
    Формат : Timed Text
    Идентификатор кодека : tx3g
    Продолжительность : 2 ч. 15 м.
    Вид битрейта : Переменный
    Битрейт : 124 бит/сек
    Размер потока : 124 Кбайт (0%)
    Заголовок : Full
    Язык : Russian
    Forced : Нет
    Дата кодирования : UTC 2018-04-11 09: 04: 33
    Дата пометки : UTC 2018-04-11 09: 04: 33
    Текст #3
    Идентификатор : 5
    Формат : Timed Text
    Идентификатор кодека : tx3g
    Продолжительность : 2 ч. 18 м.
    Вид битрейта : Переменный
    Битрейт : 85 бит/сек
    Размер потока : 86, 1 Кбайт (0%)
    Заголовок : Full
    Язык : English
    Forced : Нет
    Дата кодирования : UTC 2018-04-11 09: 04: 33
    Дата пометки : UTC 2018-04-11 09: 04: 33
    Скриншоты:


    Все одноименные релизы в Клубе
    Время раздачи: с 8: 00 до 20: 00 (до появления первых 3-5 скачавших)


    Бойцовский клуб/Fight Club (1999) HDRip [H.264] [MP4|1280x534]
    Рейтинг →
     (голосов: 1, оценка 3/5, голосовать можно 1 раз )

    Другие торренты по теме:

  • National Geographic: Бойцовский клуб для животных / Animal Fight Night(Сезон: 2, Серии: 1-3 из 3) (2014) IPTVRip
  • Nat Geo Wild: Бойцовский клуб для животных (сезон 1 серии 1-3 из 3) / Animal Fight Club (2013) HDTVRip [H.264 / 720p-LQ]
  • Бойцовский клуб зомби / Zombie Fight Club (2014) HDRip скачать через торрент бесплатно
  • Бойцовский клуб зомби / Zombie Fight Club (2014) BDRip [720p]
  • Бойцовский клуб / Fight Club (1999) HDTVRip [1080p]
  • Бойцовский клуб / Fight Club (1999) BDRip [H.264 / 1080p-LQ] скачать через торрент бесплатно
  • Чак Паланик, Кэмерон Стюарт | Бойцовский Клуб 2 / Fight Club 2 [3 номера] (2015) [CBZ] [EN] скачать через торрент бесплатно
  • Бойцовский клуб / Fight Club (1999) HDRip [AVO] скачать через торрент бесплатно


    • Комментарии (0):

      Информация

      Информация

        Посетители, находящиеся в группе Гости, не могут оставлять комментарии в данной новости.

        ↓ Меню




        ↓ Опрос

        Вы добавили сайт в закладки?
        Да
        Нет


        Top 10 за месяц (КПК и мобильные)