.
Авторизация | Регистрация
Хочешь лучшие торренты? Добавь свой email!
Добавить

Торрент скачать бесплатно

  • support: webmaster@btracker.org
» » Начало / Inception (2010) HDRip [H.264] [MP4|1280x534] торрент скачать бесплатно


    Начало / Inception (2010) HDRip [H.264] [MP4|1280x534] торрент скачать бесплатно

    Опубликовал: Админ | Дата: 15-04-2018, 05:00 | .torrent скачали: 1

    Начало / Inception (2010) HDRip [H.264] [MP4|1280x534]Производство: США, Великобритания
    Жанр: Фантастика, Боевик, Триллер, Драма
    Режиссер: Кристофер Нолан
    Продюсер: Кристофер Нолан, Эмма Томас, Закария Алауи
    Актеры: Леонардо ДиКаприо, Эллен Пейдж, Том Харди, Джозеф Гордон-Левитт, Марион Котийяр, Кен Ватанабе, Киллиан Мёрфи, Дилип Рао, Том Беренджер, Майкл Кейн

    Описание

    Кобб — талантливый вор, лучший из лучших в опасном искусстве извлечения: он крадет ценные секреты из глубин подсознания во время сна, когда человеческий разум наиболее уязвим. Редкие способности Кобба сделали его ценным игроком в привычном к предательству мире промышленного шпионажа, но они же превратили его в извечного беглеца и лишили всего, что он когда-либо любил. И вот у Кобба появляется шанс исправить ошибки. Его последнее дело может вернуть все назад, но для этого ему нужно совершить невозможное — инициацию. Вместо идеальной кражи Кобб и его команда спецов должны будут провернуть обратное. Теперь их задача — не украсть идею, а внедрить ее. Если у них получится, это и станет идеальным преступлением. Но никакое планирование или мастерство не могут подготовить команду к встрече с опасным противником, который, кажется, предугадывает каждый их ход. Врагом, увидеть которого мог бы лишь Кобб.

    Возраст: 12+ (зрителям, достигшим 12 лет)
    Рейтинг MPAA: PG-13 (детям до 13 лет просмотр нежелателен)
    Дата мировой премьеры: 8 июля 2010
    Дата российской премьеры: 22 июля 2010
    Продолжительность: 02: 28: 08
    Качество видео: HDRip
    Перевод: Дублированный (Лицензия)
    Субтитры: Русские (форсированные, полные), Английские (полные)
    Видео: AVC/H.264, 1280x534, ~1073 Kbps
    Аудио: AAC, 2 ch, ~128 Kbps

    Общее
    Полное имя : E: Download2Начало 2010 720p.mp4
    Формат : MPEG-4
    Профиль формата : Base Media
    Идентификатор кодека : isom (isom/avc1)
    Размер файла : 1, 25 Гбайт
    Продолжительность : 2 ч. 28 м.
    Режим общего битрейта : Переменный
    Общий поток : 1205 Кбит/сек
    Дата кодирования : UTC 2018-04-08 14: 12: 08
    Дата пометки : UTC 2018-04-08 14: 12: 08
    Видео
    Идентификатор : 1
    Формат : AVC
    Формат/Информация : Advanced Video Codec
    Профиль формата : High@L3.1
    Настройки формата : CABAC/1 Ref Frames
    Параметр CABAC формата : Да
    Параметр RefFrames формата : 1 кадр
    Идентификатор кодека : avc1
    Идентификатор кодека/Информация : Advanced Video Coding
    Продолжительность : 2 ч. 28 м.
    Битрейт : 1073 Кбит/сек
    Максимальный битрейт : 5587 Кбит/сек
    Ширина : 1280 пикселей
    Высота : 534 пикселя
    Соотношение сторон : 2, 40: 1
    Режим частоты кадров : Постоянный
    Частота кадров : 23, 976 (24000/1001) кадра/сек
    Цветовое пространство : YUV
    Субдискретизация насыщенности : 4: 2: 0
    Битовая глубина : 8 бит
    Тип развёртки : Прогрессивная
    Бит/(Пиксели*Кадры) : 0.065
    Размер потока : 1, 11 Гбайт (89%)
    Дата кодирования : UTC 2018-04-08 14: 12: 08
    Дата пометки : UTC 2018-04-08 14: 13: 51
    Цветовой диапазон : Limited
    Основные цвета : BT.709
    Характеристики трансфера : BT.709
    Коэффициенты матрицы : BT.709
    Аудио
    Идентификатор : 2
    Формат : AAC
    Формат/Информация : Advanced Audio Codec
    Профиль формата : LC
    Идентификатор кодека : mp4a-40-2
    Продолжительность : 2 ч. 28 м.
    Вид битрейта : Переменный
    Битрейт : 128 Кбит/сек
    Максимальный битрейт : 136 Кбит/сек
    Каналы : 2 канала
    Расположение каналов : Front: L R
    Частота : 48, 0 КГц
    Частота кадров : 46, 875 кадров/сек (1024 SPF)
    Метод сжатия : С потерями
    Размер потока : 136 Мбайт (11%)
    Заголовок : Дублированный (Лицензия)
    Язык : Russian
    Дата кодирования : UTC 2018-04-08 14: 13: 27
    Дата пометки : UTC 2018-04-08 14: 13: 51
    Текст #1
    Идентификатор : 3
    Формат : Timed Text
    Идентификатор кодека : tx3g
    Продолжительность : 2 ч. 10 м.
    Вид битрейта : Переменный
    Битрейт : 1 бит/сек
    Размер потока : 539 байт (0%)
    Заголовок : Forced
    Язык : Russian
    Forced : Нет
    Дата кодирования : UTC 2018-04-08 14: 13: 50
    Дата пометки : UTC 2018-04-08 14: 13: 51
    Текст #2
    Идентификатор : 4
    Формат : Timed Text
    Идентификатор кодека : tx3g
    Продолжительность : 2 ч. 27 м.
    Вид битрейта : Переменный
    Битрейт : 94 бит/сек
    Размер потока : 102 Кбайт (0%)
    Заголовок : Full
    Язык : Russian
    Forced : Нет
    Дата кодирования : UTC 2018-04-08 14: 13: 50
    Дата пометки : UTC 2018-04-08 14: 13: 51
    Текст #3
    Идентификатор : 5
    Формат : Timed Text
    Идентификатор кодека : tx3g
    Продолжительность : 2 ч. 28 м.
    Вид битрейта : Переменный
    Битрейт : 66 бит/сек
    Размер потока : 72, 1 Кбайт (0%)
    Заголовок : Full
    Язык : English
    Forced : Нет
    Дата кодирования : UTC 2018-04-08 14: 13: 51
    Дата пометки : UTC 2018-04-08 14: 13: 51
    Скриншоты:


    Все одноименные релизы в Клубе
    Время раздачи: с 8: 00 до 20: 00 (до появления первых 3-5 скачавших)


    Начало/Inception (2010) HDRip [H.264] [MP4|1280x534]
    Рейтинг →
     (голосов: 1, оценка 5/5, голосовать можно 1 раз )

    Другие торренты по теме:

  • Hans Zimmer - Начало / Inception (Complete Motion Picture Score) (2010) [MP3|320 кб / с]<Soundtrack>
  • Начало / Inception (2010) BDRip [H.264 / 1080p-LQ] скачать через торрент бесплатно
  • Начало / Inception (2010) BDRip [H.264]
  • Начало / Inception (2010) BDRip [H.264 / 720p] скачать через торрент бесплатно
  • Начало / Inception (2010) BDRip [H.265 / 1080p]
  • Начало / Inception (2010) DVDRip [MP4|640x272]
  • Начало / Inception (2010) BDRip [H.264 / 720p-LQ]
  • Начало / Inception (2010) UHD BDRemux [H.265 / 2160p] [4K, HDR, 10-bit]


    • Комментарии (0):

      Информация

      Информация

        Посетители, находящиеся в группе Гости, не могут оставлять комментарии в данной новости.

        ↓ Меню




        ↓ Опрос

        Вы добавили сайт в закладки?
        Да
        Нет


        Top 10 за месяц (КПК и мобильные)