.
Авторизация | Регистрация
Хочешь лучшие торренты? Добавь свой email!
Добавить

Торрент скачать бесплатно

  • support: webmaster@btracker.org
» » Красный уровень (2018) BDRip [H.264] (сезон 1, серии 1-8 из 8) [MP4|1920x1080] торрент скачать бесплатно


    Красный уровень (2018) BDRip [H.264] (сезон 1, серии 1-8 из 8) [MP4|1920x1080] торрент скачать бесплатно

    Опубликовал: Админ | Дата: 14-04-2018, 05:00 | .torrent скачали: 0

    Красный уровень (2018) BDRip [H.264] (сезон 1, серии 1-8 из 8) [MP4|1920x1080]Производство: Казахстан, телеканал КТК
    Жанр: Боевик, Драма, Триллер
    Режиссер: Валерий Мызников
    Актеры: Берик Айтжанов, Тауекел Мусилим, Сая Оразгалиева, Филипп Волошин, Нышанбек Жубанаев, Ермек Турганбеков, Марйам Сатай

    Описание

    Сюжет фильма опирается на трагические события, произошедшие в Казахстане за последние годы. Главный герой, следователь КНБ Ернар Есенгельдиев, занимается расследованием череды жестоких преступлений и неожиданно выходит на след экстремистской группировки. Выясняется, что банда замышляет сразу несколько террористических атак в столице Казахстана. Под угрозой жизни тысяч мирных граждан. При этом в личной жизни самого майора Есенгельдиева давно наступил кризис, а в самый острый момент повествования он столкнётся с шокирующим предательством.
    Возраст: 16+ (зрителям, достигшим 16 лет)
    Рейтинг MPAA: R (лицам до 17 лет обязательно присутствие взрослого)
    Релиз от: JonBJ
    Продолжительность: ~00: 45: 00 серия
    Качество видео: BDRip
    Перевод: Не требуется
    Субтитры: Русские (на казахскую речь, вшитые неотключаемые)
    Видео: AVC/H.264, 1920x1080, ~4966 Kbps
    Аудио: AAC, 2 ch, 317 Kbps

    Общее
    Формат : MPEG-4
    Профиль формата : Base Media/Version 2
    Идентификатор кодека : mp42 (mp42/mp41)
    Размер файла : 1, 69 Гбайт
    Продолжительность : 45 м. 43 с.
    Режим общего битрейта : Переменный
    Общий поток : 5289 Кбит/сек
    Дата кодирования : UTC 2018-03-28 08: 58: 41
    Дата пометки : UTC 2018-03-28 08: 59: 35
    ©TIM : 00: 00: 00: 00
    ©TSC : 25
    ©TSZ : 1
    Видео
    Идентификатор : 1
    Формат : AVC
    Формат/Информация : Advanced Video Codec
    Профиль формата : Main@L4.1
    Параметр CABAC формата : Да
    Параметр ReFrames формата : 4 кадра
    Параметр GOP формата : M=4, N=25
    Идентификатор кодека : avc1
    Идентификатор кодека/Информация : Advanced Video Coding
    Продолжительность : 45 м. 43 с.
    Битрейт : 4966 Кбит/сек
    Ширина : 1920 пикселей
    Высота : 1080 пикселей
    Соотношение сторон : 16: 9
    Режим частоты кадров : Постоянный
    Частота кадров : 25, 000 кадров/сек
    Стандарт вещания : PAL
    Цветовое пространство : YUV
    Субдискретизация насыщенности : 4: 2: 0
    Битовая глубина : 8 бит
    Тип развёртки : Прогрессивная
    Бит/(Пиксели*Кадры) : 0.096
    Размер потока : 1, 59 Гбайт (94%)
    Язык : English
    Дата кодирования : UTC 2018-03-28 08: 58: 41
    Дата пометки : UTC 2018-03-28 08: 58: 41
    Цветовой диапазон : Limited
    Основные цвета : BT.709
    Характеристики трансфера : BT.709
    Коэффициенты матрицы : BT.709
    Аудио
    Идентификатор : 2
    Формат : AAC
    Формат/Информация : Advanced Audio Codec
    Профиль формата : LC
    Идентификатор кодека : 40
    Продолжительность : 45 м. 43 с.
    Продолжительность оригинала : 45 м. 43 с.
    Вид битрейта : Переменный
    Битрейт : 317 Кбит/сек
    Максимальный битрейт : 408 Кбит/сек
    Каналы : 2 канала
    Расположение каналов : Front: L R
    Частота : 48, 0 КГц
    Частота кадров : 46, 875 кадров/сек (1024 spf)
    Метод сжатия : С потерями
    Размер потока : 104 Мбайт (6%)
    Размер потока оригинала : 104 Мбайт (6%)
    Язык : English
    Дата кодирования : UTC 2018-03-28 08: 58: 41
    Дата пометки : UTC 2018-03-28 08: 58: 41


    Красный уровень (2018) BDRip [H.264] (сезон 1, серии 1-8 из 8) [MP4|1920x1080]
    Рейтинг →
     (голосов: 1, оценка 3/5, голосовать можно 1 раз )

    Другие торренты по теме:

  • Красный и розовый / Aka x Pinku (2014) HDRip [VO] скачать через торрент бесплатно
  • Красный круг / Le cercle rouge (1970) BDRip [720p]
  • Красный шатёр / The Red Tent (2014) HDTVRip (сезон 1, серии 1 из 2) (ViruseProject) (обновляемая)
  • RWBY / Red White Black Yellow / Красный Белый Чёрный Жёлтый [2013-2014, TV, 28 из 28] WEB-DLRip 1080p raw скачать через торрент бесплатно
  • Красный дипломат (1971) TVRip (2 серии из 2) скачать через торрент бесплатно
  • Smart IR Remote - AnyMote v3.3.1 [Ru / Multi] - управления через инфра-красный порт всеми домашними устройствами скачать через торрент бесплатно
  • Красный скорпион / Red Scorpion (1988) HDRip скачать через торрент бесплатно
  • Ленин. Красный император (2014) SATRip (серии 1-3 из 3) скачать через торрент бесплатно


    • Комментарии (0):

      Информация

      Информация

        Посетители, находящиеся в группе Гости, не могут оставлять комментарии в данной новости.

        ↓ Меню




        ↓ Опрос

        Вы добавили сайт в закладки?
        Да
        Нет


        Top 10 за месяц (КПК и мобильные)