.
Авторизация | Регистрация
Хочешь лучшие торренты? Добавь свой email!
Добавить

Торрент скачать бесплатно

  • support: webmaster@btracker.org
» » Побег из Шоушенка / The Shawshank Redemption (1994) BDRip [H.264] [MP4|1920x1080] торрент скачать бесплатно


    Побег из Шоушенка / The Shawshank Redemption (1994) BDRip [H.264] [MP4|1920x1080] торрент скачать бесплатно

    Опубликовал: Админ | Дата: 14-04-2018, 05:00 | .torrent скачали: 0

    Побег из Шоушенка / The Shawshank Redemption (1994) BDRip [H.264] [MP4|1920x1080]Производство: США
    Жанр: Драма, Криминал
    Режиссер: Фрэнк Дарабонт
    Продюсер: Ники Марвин, Лиз Глоцер, Дэвид В. Лестер
    Актеры: Тим Роббинс, Морган Фриман, Боб Гантон, Уильям Сэдлер, Клэнси Браун, Джил Беллоуз, Марк Ролстон, Джеймс Уайтмор

    Описание

    Успешный банкир Энди Дюфрейн обвинен в убийстве собственной жены и ее любовника. Оказавшись в тюрьме под названием Шоушенк, он сталкивается с жестокостью и беззаконием, царящими по обе стороны решетки. Каждый, кто попадает в эти стены, становится их рабом до конца жизни. Но Энди, вооруженный живым умом и доброй душой, отказывается мириться с приговором судьбы и начинает разрабатывать невероятно дерзкий план своего освобождения.

    Возраст: 16+ (зрителям, достигшим 16 лет)
    Рейтинг MPAA: R (лицам до 17 лет обязательно присутствие взрослого)
    Продолжительность: 02: 22: 33
    Качество видео: BDRip
    Перевод: Многоголосый закадровый (LDV)
    Субтитры: Русские (полные), Английские (полные)
    Видео: AVC/H.264, 1920x1080, ~2348 Kbps
    Аудио: AAC, 6 ch, ~384 Kbps

    Общее
    Полное имя : E: Download2Побег из Шоушенка 1994 1080p.mp4
    Формат : MPEG-4
    Профиль формата : Base Media
    Идентификатор кодека : isom (isom/avc1/iso6)
    Размер файла : 2, 73 Гбайт
    Продолжительность : 2 ч. 22 м.
    Режим общего битрейта : Переменный
    Общий поток : 2737 Кбит/сек
    Дата кодирования : UTC 2018-04-10 16: 25: 19
    Дата пометки : UTC 2018-04-10 16: 25: 19
    Видео
    Идентификатор : 1
    Формат : AVC
    Формат/Информация : Advanced Video Codec
    Профиль формата : High@L4
    Настройки формата : CABAC/2 Ref Frames
    Параметр CABAC формата : Да
    Параметр RefFrames формата : 2 кадра
    Идентификатор кодека : avc1
    Идентификатор кодека/Информация : Advanced Video Coding
    Продолжительность : 2 ч. 22 м.
    Битрейт : 2348 Кбит/сек
    Максимальный битрейт : 9966 Кбит/сек
    Ширина : 1920 пикселей
    Высота : 1080 пикселей
    Соотношение сторон : 16: 9
    Режим частоты кадров : Постоянный
    Частота кадров : 23, 976 (24000/1001) кадра/сек
    Цветовое пространство : YUV
    Субдискретизация насыщенности : 4: 2: 0
    Битовая глубина : 8 бит
    Тип развёртки : Прогрессивная
    Бит/(Пиксели*Кадры) : 0.047
    Размер потока : 2, 34 Гбайт (86%)
    Дата кодирования : UTC 2018-04-10 16: 25: 19
    Дата пометки : UTC 2018-04-10 16: 27: 59
    Цветовой диапазон : Limited
    Основные цвета : BT.709
    Характеристики трансфера : BT.709
    Коэффициенты матрицы : BT.709
    Аудио
    Идентификатор : 2
    Формат : AAC
    Формат/Информация : Advanced Audio Codec
    Профиль формата : LC
    Идентификатор кодека : mp4a-40-2
    Продолжительность : 2 ч. 22 м.
    Вид битрейта : Переменный
    Битрейт : 384 Кбит/сек
    Максимальный битрейт : 402 Кбит/сек
    Каналы : 2 канала
    Channel(s)_Original : 6 каналов
    Расположение каналов : Front: L C R, Side: L R, LFE
    Частота : 48, 0 КГц
    Частота кадров : 46, 875 кадров/сек (1024 SPF)
    Метод сжатия : С потерями
    Размер потока : 392 Мбайт (14%)
    Заголовок : Многоголосый закадровый (LDV)
    Язык : Russian
    Дата кодирования : UTC 2018-04-10 16: 27: 27
    Дата пометки : UTC 2018-04-10 16: 27: 59
    Текст #1
    Идентификатор : 3
    Формат : Timed Text
    Идентификатор кодека : tx3g
    Продолжительность : 2 ч. 17 м.
    Вид битрейта : Переменный
    Битрейт : 121 бит/сек
    Размер потока : 123 Кбайт (0%)
    Заголовок : Full
    Язык : Russian
    Forced : Нет
    Дата кодирования : UTC 2018-04-10 16: 27: 59
    Дата пометки : UTC 2018-04-10 16: 27: 59
    Текст #2
    Идентификатор : 4
    Формат : Timed Text
    Идентификатор кодека : tx3g
    Продолжительность : 2 ч. 17 м.
    Вид битрейта : Переменный
    Битрейт : 68 бит/сек
    Размер потока : 68, 6 Кбайт (0%)
    Заголовок : Full
    Язык : English
    Forced : Нет
    Дата кодирования : UTC 2018-04-10 16: 27: 59
    Дата пометки : UTC 2018-04-10 16: 27: 59
    Скриншоты:


    Все одноименные релизы в Клубе
    Время раздачи: с 8: 00 до 20: 00 (до появления первых 3-5 скачавших)


    Побег из Шоушенка/The Shawshank Redemption (1994) BDRip [H.264] [MP4|1920x1080]
    Рейтинг →
     (голосов: 1, оценка 4/5, голосовать можно 1 раз )

    Другие торренты по теме:

  • Побег из Шоушенка / The Shawshank Redemption (1994) BDRip [H.264] скачать через торрент бесплатно
  • Побег из Шоушенка / The Shawshank Redemption (1994) BDRip [1080p] скачать через торрент бесплатно
  • Побег из Шоушенка / The Shawshank Redemption (1994) BDRip [720p] ATV
  • Побег из Шоушенка / The Shawshank Redemption (1994) BDRip [H.264 / 1080p] скачать через торрент бесплатно
  • Побег из Шоушенка / The Shawshank Redemption (1994) BDRip [H.264 / 720p-LQ] скачать через торрент бесплатно
  • Побег из Шоушенка / The Shawshank Redemption (1994) Blu-ray [VC-1 / 1080p] скачать через торрент бесплатно
  • Побег из Шоушенка / The Shawshank Redemption (1994) BDRip [H.265 / 1080p] скачать через торрент бесплатно
  • Побег из Шоушенка / The Shawshank Redemption (1994) BDRip [H.264] скачать через торрент бесплатно


    • Комментарии (0):

      Информация

      Информация

        Посетители, находящиеся в группе Гости, не могут оставлять комментарии в данной новости.

        ↓ Меню




        ↓ Опрос

        Вы добавили сайт в закладки?
        Да
        Нет


        Top 10 за месяц (КПК и мобильные)

        Кукутики: Полная коллекция / (Kukutiki: Full collection) (2015-2018) WEB-DLRip [H.264] (Серии 1-79 из 79 + Караоке версии 1-16 из 16) [MP4|1280x720]

        (скачиваний: 261)
        Тоботы / Tobot (2010) TVRip [H.264] (Сезон 1-2, серии 1-57 из ) [MP4|720x408]

        (скачиваний: 160)
        Garmin: Дороги России Топо 6.27 [Ru]

        (скачиваний: 141)
        Garmin: City Navigator Russia NTU 2019.10 - HERE [Ru]

        (скачиваний: 132)
        Карты для iGO Europe (Primo, NextGen, Becker и т.д.) 2018.02.24 [Ru / Multi]

        (скачиваний: 113)
        NaviTel / Навител Навигатор 9.8.187 [Ru / Multi] (Windows CE)

        (скачиваний: 104)
        Сборка iGO Primo NextGen 9.19.1.484935 WinCE [Ru / Multi] - навигационный программный комплекс для устройств с WinCE скачать через торрент бесплатно

        (скачиваний: 104)
        Альтернативные скины для Навител v9.8.2 / 9.8.3 / 9.8.19 [Ru]

        (скачиваний: 82)
        Три медведя: Полная коллекция / (The three bears: Full collection) (2016-2018) WEB-DLRip [H.264] (Серии 1-32 из 32 + 1-14 из 14 Караоке версий) [MP4|1280x720]

        (скачиваний: 69)
        Прошивка Android KitKat 4.4.2 (Официальное обновление 01010 Europe (Android 4.4.2) для Alcatel One Touch Idol X+ (04.09.2014) <Ru>) скачать через торрент бесплатно

        (скачиваний: 55)