.
Авторизация | Регистрация
Хочешь лучшие торренты? Добавь свой email!
Добавить

Торрент скачать бесплатно

  • support: webmaster@btracker.org
» » Космические уборщики / Space Janitors (2012) WEB-DLRip [H.264] (1 сезон, серии 1-8 из 8) [MP4|1280x720] [VO] торрент скачать бесплатно


    Космические уборщики / Space Janitors (2012) WEB-DLRip [H.264] (1 сезон, серии 1-8 из 8) [MP4|1280x720] [VO] торрент скачать бесплатно

    Опубликовал: Админ | Дата: 14-04-2018, 05:00 | .torrent скачали: 0

    Космические уборщики / Space Janitors (2012) WEB-DLRip [H.264] (1 сезон, серии 1-8 из 8) [MP4|1280x720] [VO]Производство: Канада
    Жанр: комедия
    Режиссер: Джофф Лапер
    Актеры: Брендан Халлоран, Скотт Ямамура, Пэт Торнтон, Эвани Розен, Хелен Джонс, Энди Халл, Тесс Дагенстейн, Курт Смитон, Сара Хиллер, Джон Блэр

    Описание

    Канадский веб-сериал во вселенной Звездных Войн. История крутится вокруг Дарби Ричардса и Майка Чета, работающих уборщиками на космической станции типа Звезды Смерти. Сериал является веселой пародией не только на Звездные Войны, но и на всю научную фантастику в целом. Дымящиеся бластеры и космические интриги, туповатый юмор и своя особая атмосфера.

    Релиз от: Майк Пилигрим
    Продолжительность: ~00: 08: 00 серия
    Качество видео: WEB-DLRip
    Перевод: Одноголосый закадровый, любительский
    Субтитры: отсутствуют
    Видео: AVC/H.264, 1280x720, ~1500 Kbps
    Аудио: AAC, 2 ch, 192 Kbps

    General
    Complete name : D: SpaceJanitorsSpace Janitors RUSSpace Janitors RUS - Season 1s1e1.mp4
    Format : MPEG-4
    Format profile : Base Media/Version 2
    Codec ID : mp42
    File size : 44.7 MiB
    Duration : 3mn 23s
    Overall bit rate mode : Variable
    Overall bit rate : 1 842 Kbps
    Encoded date : UTC 2016-11-28 09: 26: 43
    Tagged date : UTC 2016-11-28 09: 26: 43
    Video
    ID : 2
    Format : AVC
    Format/Info : Advanced Video Codec
    Format profile : High@L3.2
    Format settings, CABAC : Yes
    Format settings, ReFrames : 3 frames
    Format settings, GOP : M=4, N=15
    Codec ID : avc1
    Codec ID/Info : Advanced Video Coding
    Duration : 3mn 23s
    Bit rate mode : Variable
    Bit rate : 1 646 Kbps
    Maximum bit rate : 4 000 Kbps
    Width : 1 280 pixels
    Height : 720 pixels
    Display aspect ratio : 16: 9
    Frame rate mode : Constant
    Frame rate : 23.976 fps
    Standard : NTSC
    Color space : YUV
    Chroma subsampling : 4: 2: 0
    Bit depth : 8 bits
    Scan type : Progressive
    Bits/(Pixel*Frame) : 0.075
    Stream size : 40.0 MiB (89%)
    Language : English
    Encoded date : UTC 2016-11-28 09: 26: 43
    Tagged date : UTC 2016-11-28 09: 26: 43
    Color primaries : BT.709-5, BT.1361, IEC 61966-2-4, SMPTE RP177
    Transfer characteristics : BT.709-5, BT.1361
    Matrix coefficients : BT.709-5, BT.1361, IEC 61966-2-4 709, SMPTE RP177
    Audio
    ID : 1
    Format : AAC
    Format/Info : Advanced Audio Codec
    Format profile : LC
    Codec ID : 40
    Duration : 3mn 23s
    Bit rate mode : Constant
    Bit rate : 192 Kbps
    Channel(s) : 2 channels
    Channel positions : Front: L R
    Sampling rate : 44.1 KHz
    Compression mode : Lossy
    Stream size : 4.66 MiB (10%)
    Language : English
    Encoded date : UTC 2016-11-28 09: 26: 43
    Tagged date : UTC 2016-11-28 09: 26: 43
    General
    Complete name : D: SpaceJanitorsSpace Janitors RUSSpace Janitors RUS - Season 1s1e2.mp4
    Format : MPEG-4
    Format profile : Base Media/Version 2
    Codec ID : mp42
    File size : 130 MiB
    Duration : 11mn 22s
    Overall bit rate mode : Variable
    Overall bit rate : 1 601 Kbps
    Encoded date : UTC 2016-11-28 11: 04: 05
    Tagged date : UTC 2016-11-28 11: 04: 05
    Video
    ID : 2
    Format : AVC
    Format/Info : Advanced Video Codec
    Format profile : High@L3.2
    Format settings, CABAC : Yes
    Format settings, ReFrames : 3 frames
    Codec ID : avc1
    Codec ID/Info : Advanced Video Coding
    Duration : 11mn 22s
    Bit rate mode : Variable
    Bit rate : 1 405 Kbps
    Maximum bit rate : 4 000 Kbps
    Width : 1 280 pixels
    Height : 720 pixels
    Display aspect ratio : 16: 9
    Frame rate mode : Constant
    Frame rate : 23.976 fps
    Standard : NTSC
    Color space : YUV
    Chroma subsampling : 4: 2: 0
    Bit depth : 8 bits
    Scan type : Progressive
    Bits/(Pixel*Frame) : 0.064
    Stream size : 114 MiB (88%)
    Language : English
    Encoded date : UTC 2016-11-28 11: 04: 05
    Tagged date : UTC 2016-11-28 11: 04: 05
    Color primaries : BT.709-5, BT.1361, IEC 61966-2-4, SMPTE RP177
    Transfer characteristics : BT.709-5, BT.1361
    Matrix coefficients : BT.709-5, BT.1361, IEC 61966-2-4 709, SMPTE RP177
    Audio
    ID : 1
    Format : AAC
    Format/Info : Advanced Audio Codec
    Format profile : LC
    Codec ID : 40
    Duration : 11mn 22s
    Bit rate mode : Constant
    Bit rate : 192 Kbps
    Channel(s) : 2 channels
    Channel positions : Front: L R
    Sampling rate : 44.1 KHz
    Compression mode : Lossy
    Stream size : 15.6 MiB (12%)
    Language : English
    Encoded date : UTC 2016-11-28 11: 04: 05
    Tagged date : UTC 2016-11-28 11: 04: 05
    General
    Complete name : D: SpaceJanitorsSpace Janitors RUSSpace Janitors RUS - Season 1s1e3.mp4
    Format : MPEG-4
    Format profile : Base Media/Version 2
    Codec ID : mp42
    File size : 96.4 MiB
    Duration : 7mn 51s
    Overall bit rate mode : Variable
    Overall bit rate : 1 715 Kbps
    Encoded date : UTC 2016-11-28 11: 47: 40
    Tagged date : UTC 2016-11-28 11: 47: 40
    Video
    ID : 2
    Format : AVC
    Format/Info : Advanced Video Codec
    Format profile : High@L3.2
    Format settings, CABAC : Yes
    Format settings, ReFrames : 3 frames
    Codec ID : avc1
    Codec ID/Info : Advanced Video Coding
    Duration : 7mn 51s
    Bit rate mode : Variable
    Bit rate : 1 518 Kbps
    Maximum bit rate : 4 000 Kbps
    Width : 1 280 pixels
    Height : 720 pixels
    Display aspect ratio : 16: 9
    Frame rate mode : Constant
    Frame rate : 23.976 fps
    Standard : NTSC
    Color space : YUV
    Chroma subsampling : 4: 2: 0
    Bit depth : 8 bits
    Scan type : Progressive
    Bits/(Pixel*Frame) : 0.069
    Stream size : 85.4 MiB (89%)
    Language : English
    Encoded date : UTC 2016-11-28 11: 47: 40
    Tagged date : UTC 2016-11-28 11: 47: 40
    Color primaries : BT.709-5, BT.1361, IEC 61966-2-4, SMPTE RP177
    Transfer characteristics : BT.709-5, BT.1361
    Matrix coefficients : BT.709-5, BT.1361, IEC 61966-2-4 709, SMPTE RP177
    Audio
    ID : 1
    Format : AAC
    Format/Info : Advanced Audio Codec
    Format profile : LC
    Codec ID : 40
    Duration : 7mn 51s
    Bit rate mode : Constant
    Bit rate : 192 Kbps
    Channel(s) : 2 channels
    Channel positions : Front: L R
    Sampling rate : 44.1 KHz
    Compression mode : Lossy
    Stream size : 10.8 MiB (11%)
    Language : English
    Encoded date : UTC 2016-11-28 11: 47: 40
    Tagged date : UTC 2016-11-28 11: 47: 40
    General
    Complete name : D: SpaceJanitorsSpace Janitors RUSSpace Janitors RUS - Season 1s1e4.mp4
    Format : MPEG-4
    Format profile : Base Media/Version 2
    Codec ID : mp42
    File size : 95.9 MiB
    Duration : 8mn 10s
    Overall bit rate mode : Variable
    Overall bit rate : 1 641 Kbps
    Encoded date : UTC 2016-11-28 12: 18: 55
    Tagged date : UTC 2016-11-28 12: 18: 55
    Video
    ID : 2
    Format : AVC
    Format/Info : Advanced Video Codec
    Format profile : High@L3.2
    Format settings, CABAC : Yes
    Format settings, ReFrames : 3 frames
    Format settings, GOP : M=4, N=15
    Codec ID : avc1
    Codec ID/Info : Advanced Video Coding
    Duration : 8mn 10s
    Bit rate mode : Variable
    Bit rate : 1 445 Kbps
    Maximum bit rate : 4 000 Kbps
    Width : 1 280 pixels
    Height : 720 pixels
    Display aspect ratio : 16: 9
    Frame rate mode : Constant
    Frame rate : 23.976 fps
    Standard : NTSC
    Color space : YUV
    Chroma subsampling : 4: 2: 0
    Bit depth : 8 bits
    Scan type : Progressive
    Bits/(Pixel*Frame) : 0.065
    Stream size : 84.4 MiB (88%)
    Language : English
    Encoded date : UTC 2016-11-28 12: 18: 55
    Tagged date : UTC 2016-11-28 12: 18: 55
    Color primaries : BT.709-5, BT.1361, IEC 61966-2-4, SMPTE RP177
    Transfer characteristics : BT.709-5, BT.1361
    Matrix coefficients : BT.709-5, BT.1361, IEC 61966-2-4 709, SMPTE RP177
    Audio
    ID : 1
    Format : AAC
    Format/Info : Advanced Audio Codec
    Format profile : LC
    Codec ID : 40
    Duration : 8mn 10s
    Bit rate mode : Constant
    Bit rate : 192 Kbps
    Channel(s) : 2 channels
    Channel positions : Front: L R
    Sampling rate : 44.1 KHz
    Compression mode : Lossy
    Stream size : 11.2 MiB (12%)
    Language : English
    Encoded date : UTC 2016-11-28 12: 18: 55
    Tagged date : UTC 2016-11-28 12: 18: 55
    General
    Complete name : D: SpaceJanitorsSpace Janitors RUSSpace Janitors RUS - Season 1s1e5.mp4
    Format : MPEG-4
    Format profile : Base Media/Version 2
    Codec ID : mp42
    File size : 101 MiB
    Duration : 8mn 26s
    Overall bit rate mode : Variable
    Overall bit rate : 1 677 Kbps
    Encoded date : UTC 2016-11-28 12: 50: 29
    Tagged date : UTC 2016-11-28 12: 50: 29
    Video
    ID : 2
    Format : AVC
    Format/Info : Advanced Video Codec
    Format profile : High@L3.2
    Format settings, CABAC : Yes
    Format settings, ReFrames : 3 frames
    Codec ID : avc1
    Codec ID/Info : Advanced Video Coding
    Duration : 8mn 26s
    Bit rate mode : Variable
    Bit rate : 1 481 Kbps
    Maximum bit rate : 4 000 Kbps
    Width : 1 280 pixels
    Height : 720 pixels
    Display aspect ratio : 16: 9
    Frame rate mode : Constant
    Frame rate : 23.976 fps
    Standard : NTSC
    Color space : YUV
    Chroma subsampling : 4: 2: 0
    Bit depth : 8 bits
    Scan type : Progressive
    Bits/(Pixel*Frame) : 0.067
    Stream size : 89.3 MiB (88%)
    Language : English
    Encoded date : UTC 2016-11-28 12: 50: 29
    Tagged date : UTC 2016-11-28 12: 50: 29
    Color primaries : BT.709-5, BT.1361, IEC 61966-2-4, SMPTE RP177
    Transfer characteristics : BT.709-5, BT.1361
    Matrix coefficients : BT.709-5, BT.1361, IEC 61966-2-4 709, SMPTE RP177
    Audio
    ID : 1
    Format : AAC
    Format/Info : Advanced Audio Codec
    Format profile : LC
    Codec ID : 40
    Duration : 8mn 26s
    Bit rate mode : Constant
    Bit rate : 192 Kbps
    Channel(s) : 2 channels
    Channel positions : Front: L R
    Sampling rate : 44.1 KHz
    Compression mode : Lossy
    Stream size : 11.6 MiB (11%)
    Language : English
    Encoded date : UTC 2016-11-28 12: 50: 29
    Tagged date : UTC 2016-11-28 12: 50: 29
    General
    Complete name : D: SpaceJanitorsSpace Janitors RUSSpace Janitors RUS - Season 1s1e6.mp4
    Format : MPEG-4
    Format profile : Base Media/Version 2
    Codec ID : mp42
    File size : 130 MiB
    Duration : 10mn 49s
    Overall bit rate mode : Variable
    Overall bit rate : 1 680 Kbps
    Encoded date : UTC 2016-11-28 08: 40: 36
    Tagged date : UTC 2016-11-28 08: 40: 36
    Video
    ID : 2
    Format : AVC
    Format/Info : Advanced Video Codec
    Format profile : High@L3.2
    Format settings, CABAC : Yes
    Format settings, ReFrames : 3 frames
    Format settings, GOP : M=4, N=15
    Codec ID : avc1
    Codec ID/Info : Advanced Video Coding
    Duration : 10mn 49s
    Bit rate mode : Variable
    Bit rate : 1 484 Kbps
    Maximum bit rate : 4 000 Kbps
    Width : 1 280 pixels
    Height : 720 pixels
    Display aspect ratio : 16: 9
    Frame rate mode : Constant
    Frame rate : 23.976 fps
    Standard : NTSC
    Color space : YUV
    Chroma subsampling : 4: 2: 0
    Bit depth : 8 bits
    Scan type : Progressive
    Bits/(Pixel*Frame) : 0.067
    Stream size : 115 MiB (88%)
    Language : English
    Encoded date : UTC 2016-11-28 08: 40: 36
    Tagged date : UTC 2016-11-28 08: 40: 36
    Color primaries : BT.709-5, BT.1361, IEC 61966-2-4, SMPTE RP177
    Transfer characteristics : BT.709-5, BT.1361
    Matrix coefficients : BT.709-5, BT.1361, IEC 61966-2-4 709, SMPTE RP177
    Audio
    ID : 1
    Format : AAC
    Format/Info : Advanced Audio Codec
    Format profile : LC
    Codec ID : 40
    Duration : 10mn 49s
    Bit rate mode : Constant
    Bit rate : 192 Kbps
    Channel(s) : 2 channels
    Channel positions : Front: L R
    Sampling rate : 44.1 KHz
    Compression mode : Lossy
    Stream size : 14.9 MiB (11%)
    Language : English
    Encoded date : UTC 2016-11-28 08: 40: 36
    Tagged date : UTC 2016-11-28 08: 40: 36
    General
    Complete name : D: SpaceJanitorsSpace Janitors RUSSpace Janitors RUS - Season 1s1e7.mp4
    Format : MPEG-4
    Format profile : Base Media/Version 2
    Codec ID : mp42
    File size : 99.4 MiB
    Duration : 7mn 49s
    Overall bit rate mode : Variable
    Overall bit rate : 1 774 Kbps
    Encoded date : UTC 2016-11-28 13: 39: 01
    Tagged date : UTC 2016-11-28 13: 39: 01
    Video
    ID : 2
    Format : AVC
    Format/Info : Advanced Video Codec
    Format profile : High@L3.2
    Format settings, CABAC : Yes
    Format settings, ReFrames : 3 frames
    Format settings, GOP : M=4, N=15
    Codec ID : avc1
    Codec ID/Info : Advanced Video Coding
    Duration : 7mn 49s
    Bit rate mode : Variable
    Bit rate : 1 578 Kbps
    Maximum bit rate : 4 000 Kbps
    Width : 1 280 pixels
    Height : 720 pixels
    Display aspect ratio : 16: 9
    Frame rate mode : Constant
    Frame rate : 23.976 fps
    Standard : NTSC
    Color space : YUV
    Chroma subsampling : 4: 2: 0
    Bit depth : 8 bits
    Scan type : Progressive
    Bits/(Pixel*Frame) : 0.071
    Stream size : 88.4 MiB (89%)
    Language : English
    Encoded date : UTC 2016-11-28 13: 39: 01
    Tagged date : UTC 2016-11-28 13: 39: 01
    Color primaries : BT.709-5, BT.1361, IEC 61966-2-4, SMPTE RP177
    Transfer characteristics : BT.709-5, BT.1361
    Matrix coefficients : BT.709-5, BT.1361, IEC 61966-2-4 709, SMPTE RP177
    Audio
    ID : 1
    Format : AAC
    Format/Info : Advanced Audio Codec
    Format profile : LC
    Codec ID : 40
    Duration : 7mn 49s
    Bit rate mode : Constant
    Bit rate : 192 Kbps
    Channel(s) : 2 channels
    Channel positions : Front: L R
    Sampling rate : 44.1 KHz
    Compression mode : Lossy
    Stream size : 10.8 MiB (11%)
    Language : English
    Encoded date : UTC 2016-11-28 13: 39: 01
    Tagged date : UTC 2016-11-28 13: 39: 01
    General
    Complete name : D: SpaceJanitorsSpace Janitors RUSSpace Janitors RUS - Season 1s1e8.mp4
    Format : MPEG-4
    Format profile : Base Media/Version 2
    Codec ID : mp42
    File size : 99.3 MiB
    Duration : 8mn 43s
    Overall bit rate mode : Variable
    Overall bit rate : 1 592 Kbps
    Encoded date : UTC 2016-11-28 14: 10: 18
    Tagged date : UTC 2016-11-28 14: 10: 18
    Video
    ID : 2
    Format : AVC
    Format/Info : Advanced Video Codec
    Format profile : High@L3.2
    Format settings, CABAC : Yes
    Format settings, ReFrames : 3 frames
    Format settings, GOP : M=4, N=15
    Codec ID : avc1
    Codec ID/Info : Advanced Video Coding
    Duration : 8mn 43s
    Bit rate mode : Variable
    Bit rate : 1 395 Kbps
    Maximum bit rate : 4 000 Kbps
    Width : 1 280 pixels
    Height : 720 pixels
    Display aspect ratio : 16: 9
    Frame rate mode : Constant
    Frame rate : 23.976 fps
    Standard : NTSC
    Color space : YUV
    Chroma subsampling : 4: 2: 0
    Bit depth : 8 bits
    Scan type : Progressive
    Bits/(Pixel*Frame) : 0.063
    Stream size : 87.1 MiB (88%)
    Language : English
    Encoded date : UTC 2016-11-28 14: 10: 18
    Tagged date : UTC 2016-11-28 14: 10: 18
    Color primaries : BT.709-5, BT.1361, IEC 61966-2-4, SMPTE RP177
    Transfer characteristics : BT.709-5, BT.1361
    Matrix coefficients : BT.709-5, BT.1361, IEC 61966-2-4 709, SMPTE RP177
    Audio
    ID : 1
    Format : AAC
    Format/Info : Advanced Audio Codec
    Format profile : LC
    Codec ID : 40
    Duration : 8mn 43s
    Bit rate mode : Constant
    Bit rate : 192 Kbps
    Channel(s) : 2 channels
    Channel positions : Front: L R
    Sampling rate : 44.1 KHz
    Compression mode : Lossy
    Stream size : 12.0 MiB (12%)
    Language : English
    Encoded date : UTC 2016-11-28 14: 10: 18
    Tagged date : UTC 2016-11-28 14: 10: 18
    Скриншоты:


    Все одноименные релизы в Клубе
    Время раздачи: 24/7 (до появления первых 3-5 скачавших)


    Космические уборщики/Space Janitors (2012) WEB-DLRip [H.264] (1 сезон, серии 1-8 из 8) [MP4|1280x720] [VO]
    Рейтинг →
     (голосов: 1, оценка 4/5, голосовать можно 1 раз )

    Другие торренты по теме:



      Комментарии (0):

      Информация

      Информация

        Посетители, находящиеся в группе Гости, не могут оставлять комментарии в данной новости.

        ↓ Меню




        ↓ Опрос

        Вы добавили сайт в закладки?
        Да
        Нет


        Top 10 за месяц (КПК и мобильные)