.
Авторизация | Регистрация
Хочешь лучшие торренты? Добавь свой email!
Добавить

Торрент скачать бесплатно

  • support: webmaster@btracker.org
» » Буря над Азией (1964) VHSRip [H.264] [MP4|672x560@746x560] торрент скачать бесплатно


    Буря над Азией (1964) VHSRip [H.264] [MP4|672x560@746x560] торрент скачать бесплатно

    Опубликовал: Админ | Дата: 13-04-2018, 05:00 | .torrent скачали: 0

    Буря над Азией (1964) VHSRip [H.264] [MP4|672x560@746x560]Производство: СССР, Узбекфильм
    Жанр: Военный, Драма, исторический
    Режиссер: Камил Ярматов
    Актеры: Александр Афанасьев, Руслан Ахметов, Аббас Бакиров, Александр Барушной, Шукур Бурханов, Алексей Смирнов, Валерий Косенков, Анатолий Соловьев, Галина Теплинская, Камил Ярматов

    Описание

    Историко-революционный фильм, посвященный первым годам революции и Советской власти в Узбекистане, дружбе русского народа с народами Средней АзииВ центре картины — образ народного героя, вожака восставших декхан Юсупа Ялантуша. Революционер-коммунист Василий Щукин и его друг узбекский юноша Джамал помогают Юсупу разобраться в революционных событиях и выбрать правильный путь в жизни

    Возраст: этот продукт не был классифицирован
    Продолжительность: 01: 29: 06
    Качество видео: VHSRip
    Субтитры: отсутствуют
    Видео: AVC/H.264, 672x560@746x560, ~1233 Kbps
    Аудио: AAC, 2 ch, 192 Kbps

    Общее
    Полное имя : Z: Буря над Азией (1964) VHSRip.mp4
    Формат : MPEG-4
    Профиль формата : JVT
    Идентификатор кодека : avc1 (avc1/mp42)
    Размер файла : 916 Мбайт
    Продолжительность : 1 ч. 29 м.
    Режим общего битрейта : Переменный
    Общий поток : 1437 Кбит/сек
    Дата кодирования : UTC 2016-05-31 21: 51: 44
    Дата пометки : UTC 2016-05-31 21: 51: 44
    Видео
    Идентификатор : 1
    Формат : AVC
    Формат/Информация : Advanced Video Codec
    Профиль формата : High@L3.1
    Настройки формата : CABAC/2 Ref Frames
    Параметр CABAC формата : Да
    Параметр RefFrames формата : 2 кадра
    Параметр GOP формата : M=3, N=30
    Идентификатор кодека : avc1
    Идентификатор кодека/Информация : Advanced Video Coding
    Продолжительность : 1 ч. 29 м.
    Вид битрейта : Переменный
    Битрейт : 1233 Кбит/сек
    Максимальный битрейт : 17, 0 Мбит/сек
    Ширина : 672 пикселя
    Высота : 560 пикселей
    Соотношение сторон : 4: 3
    Соотношение сторон в оригинале : 4: 3
    Режим частоты кадров : Постоянный
    Частота кадров : 25, 000 кадров/сек
    Цветовое пространство : YUV
    Субдискретизация насыщенности : 4: 2: 0
    Битовая глубина : 8 бит
    Тип развёртки : Прогрессивная
    Бит/(Пиксели*Кадры) : 0.131
    Размер потока : 786 Мбайт (86%)
    Язык : English
    Дата кодирования : UTC 2016-05-31 21: 51: 44
    Дата пометки : UTC 2016-05-31 21: 51: 44
    Аудио
    Идентификатор : 2
    Формат : AAC
    Формат/Информация : Advanced Audio Codec
    Профиль формата : LC
    Идентификатор кодека : mp4a-40-2
    Продолжительность : 1 ч. 29 м.
    Продолжительность оригинала : 1 ч. 29 м.
    Вид битрейта : Постоянный
    Битрейт : 192 Кбит/сек
    Каналы : 2 канала
    Расположение каналов : Front: L R
    Частота : 48, 0 КГц
    Частота кадров : 46, 875 кадров/сек (1024 SPF)
    Метод сжатия : С потерями
    Размер потока : 122 Мбайт (13%)
    Размер потока оригинала : 122 Мбайт (13%)
    Язык : English
    Дата кодирования : UTC 2016-05-31 21: 51: 44
    Дата пометки : UTC 2016-05-31 21: 51: 44
    Скриншоты:



    Все одноименные релизы в Клубе
    Время раздачи: С 18: 00 до 23: 00 (до появления первых 3-5 скачавших)


    Буря над Азией (1964) VHSRip [H.264] [MP4|672x560@746x560]
    Рейтинг →
     (голосов: 1, оценка 5/5, голосовать можно 1 раз )

    Другие торренты по теме:

  • Джордж Р. Р. Мартин | Буря мечей (2013) [FB2] скачать через торрент бесплатно
  • Андрей Круз | Близится буря (2014) [MP3]
  • Стивен Кинг | Буря столетия [2013] [M4B | AAC]
  • Yuri Kuma Arashi | Медвежья буря, лилий ураган [2015, TV, 8 из 12] HDTV 720p 10bit raw скачать через торрент бесплатно
  • Yuri Kuma Arashi | Медвежья буря, лилий ураган [2015, TV, 4 из 12] BDRip 1080p raw скачать через торрент бесплатно
  • Солнечная буря / Solstorm (2007) DVDRip [VO] скачать через торрент бесплатно
  • Дэмиан Диббен | Хранители истории. Буря начинается (2012) [PDF, DJVU] скачать через торрент бесплатно
  • Звёздные войны: Буря в стакане / Star Wars: Storm in the Glass (2004) HDRip [H.264 / 1080p] [Пародия]


    • Комментарии (0):

      Информация

      Информация

        Посетители, находящиеся в группе Гости, не могут оставлять комментарии в данной новости.

        ↓ Меню




        ↓ Опрос

        Вы добавили сайт в закладки?
        Да
        Нет


        Top 10 за месяц (КПК и мобильные)