.
Авторизация | Регистрация
Хочешь лучшие торренты? Добавь свой email!
Добавить

Торрент скачать бесплатно

» » Миссия: невыполнима 2 / Mission: Impossible II (2000) HDRip [H.264] [MP4|1280x530] торрент скачать бесплатно


    Миссия: невыполнима 2 / Mission: Impossible II (2000) HDRip [H.264] [MP4|1280x530] торрент скачать бесплатно

    Опубликовал: Админ | Дата: 4-04-2018, 05:00 | .torrent скачали: 1

    Миссия: невыполнима 2 / Mission: Impossible II (2000) HDRip [H.264] [MP4|1280x530]Производство: США, Германия
    Жанр: Боевик, Триллер, Приключения
    Режиссер: Джон Ву
    Продюсер: Том Круз, Пола Вагнер, Теренс Чан
    Актеры: Том Круз, Дюгрэй Скотт, Тэнди Ньютон, Винг Реймз, Ричард Роксбург, Джон Полсон, Брендан Глисон, Раде Шербеджия, Уильям Мапотер, Доминик Пурселл

    Описание

    Если мир внезапно оказывается перед лицом ужасной катастрофы, есть лишь один человек, который может исправить это ужасное положение. Его имя Итан Хант, он прирожденный специалист по разрешению самых неразрешимых ситуаций. Теперь у Итана — новый, строгий начальник, новая очаровательная возлюбленная, новый коварный противник и новое задание, которое простому смертному просто не по плечу. Но Итан Хант не был бы Итаном Хантом, если бы не смог с блеском выполнить очередную невыполнимую миссию: справиться с кровожадными террористами и спасти планету от ужасного, смертельного вируса!

    Возраст: 12+ (зрителям, достигшим 12 лет)
    Рейтинг MPAA: PG-13 (детям до 13 лет просмотр нежелателен)
    Дата мировой премьеры: 18 мая 2000
    Дата российской премьеры: 7 июля 2000
    Продолжительность: 02: 03: 35
    Качество видео: HDRip
    Перевод: Дублированный (Ист-Вест)
    Субтитры: Русские (полные), Английские (полные)
    Видео: AVC/H.264, 1280x530, ~1411 Kbps
    Аудио: AAC, 2 ch, ~128 Kbps

    Общее
    Полное имя : E: Download2Миссия невыполнима 2 2000 720p.mp4
    Формат : MPEG-4
    Профиль формата : Base Media
    Идентификатор кодека : isom (isom/avc1)
    Размер файла : 1, 33 Гбайт
    Продолжительность : 2 ч. 3 м.
    Режим общего битрейта : Переменный
    Общий поток : 1542 Кбит/сек
    Дата кодирования : UTC 2018-03-29 09: 41: 33
    Дата пометки : UTC 2018-03-29 09: 41: 33
    Видео
    Идентификатор : 1
    Формат : AVC
    Формат/Информация : Advanced Video Codec
    Профиль формата : High@L3.1
    Настройки формата : CABAC/1 Ref Frames
    Параметр CABAC формата : Да
    Параметр RefFrames формата : 1 кадр
    Идентификатор кодека : avc1
    Идентификатор кодека/Информация : Advanced Video Coding
    Продолжительность : 2 ч. 3 м.
    Битрейт : 1411 Кбит/сек
    Максимальный битрейт : 5541 Кбит/сек
    Ширина : 1280 пикселей
    Высота : 530 пикселей
    Соотношение сторон : 2, 40: 1
    Режим частоты кадров : Постоянный
    Частота кадров : 23, 976 (24000/1001) кадра/сек
    Цветовое пространство : YUV
    Субдискретизация насыщенности : 4: 2: 0
    Битовая глубина : 8 бит
    Тип развёртки : Прогрессивная
    Бит/(Пиксели*Кадры) : 0.087
    Размер потока : 1, 22 Гбайт (92%)
    Дата кодирования : UTC 2018-03-29 09: 41: 33
    Дата пометки : UTC 2018-03-29 09: 42: 43
    Цветовой диапазон : Limited
    Основные цвета : BT.709
    Характеристики трансфера : BT.709
    Коэффициенты матрицы : BT.709
    Аудио
    Идентификатор : 2
    Формат : AAC
    Формат/Информация : Advanced Audio Codec
    Профиль формата : LC
    Идентификатор кодека : mp4a-40-2
    Продолжительность : 2 ч. 3 м.
    Вид битрейта : Переменный
    Битрейт : 128 Кбит/сек
    Максимальный битрейт : 143 Кбит/сек
    Каналы : 2 канала
    Расположение каналов : Front: L R
    Частота : 48, 0 КГц
    Частота кадров : 46, 875 кадров/сек (1024 SPF)
    Метод сжатия : С потерями
    Размер потока : 113 Мбайт (8%)
    Заголовок : Дублированный (Ист-Вест)
    Язык : Russian
    Дата кодирования : UTC 2018-03-29 09: 42: 29
    Дата пометки : UTC 2018-03-29 09: 42: 43
    Текст #1
    Идентификатор : 3
    Формат : Timed Text
    Идентификатор кодека : tx3g
    Продолжительность : 1 ч. 58 м.
    Вид битрейта : Переменный
    Битрейт : 63 бит/сек
    Размер потока : 55, 0 Кбайт (0%)
    Заголовок : Full
    Язык : Russian
    Forced : Нет
    Дата кодирования : UTC 2018-03-29 09: 42: 43
    Дата пометки : UTC 2018-03-29 09: 42: 43
    Текст #2
    Идентификатор : 4
    Формат : Timed Text
    Идентификатор кодека : tx3g
    Продолжительность : 1 ч. 58 м.
    Вид битрейта : Переменный
    Битрейт : 40 бит/сек
    Размер потока : 34, 7 Кбайт (0%)
    Заголовок : Full
    Язык : English
    Forced : Нет
    Дата кодирования : UTC 2018-03-29 09: 42: 43
    Дата пометки : UTC 2018-03-29 09: 42: 43
    Скриншоты:


    Все одноименные релизы в Клубе
    Время раздачи: с 8: 00 до 20: 00 (до появления первых 3-5 скачавших)


    Миссия: невыполнима 2/Mission: Impossible II (2000) HDRip [H.264] [MP4|1280x530]
    Рейтинг →
     (голосов: 1, оценка 4/5, голосовать можно 1 раз )

    Другие торренты по теме:

  • Миссия: невыполнима 5 / Mission: Impossible 5 (2015) WEBRip [1080p] [Трейлер] [EN] скачать через торрент бесплатно
  • Миссия невыполнима: Племя изгоев / Mission: Impossible - Rogue Nation (2015) WEBRip [1080p] [Трейлер] скачать через торрент бесплатно
  • Миссия невыполнима: Племя изгоев / Mission: Impossible - Rogue Nation (2015) WEBRip [H.264 / 1080p] [Трейлер #2] скачать через торрент бесплатно
  • Миссия невыполнима: Племя изгоев / Mission: Impossible - Rogue Nation (2015) DCPRip [2К] [Трейлер] скачать через торрент бесплатно
  • Миссия невыполнима: Племя изгоев / Mission: Impossible - Rogue Nation (2015) TS [EN] скачать через торрент бесплатно
  • Миссия невыполнима: Протокол Фантом / Mission: Impossible - Ghost Protocol (2011) HDRip [AVO] скачать через торрент бесплатно
  • Миссия невыполнима 3 / Mission: Impossible 3 (2006) HDRip [AVO] скачать через торрент бесплатно
  • Миссия невыполнима / Mission: Impossible (1996) HDRip [AVO] скачать через торрент бесплатно


    • Комментарии (0):

      Информация

      Информация

        Посетители, находящиеся в группе Гости, не могут оставлять комментарии в данной новости.

        ↓ Меню




        ↓ Опрос

        Вы добавили сайт в закладки?
        Да
        Нет


        Top 10 за месяц (КПК и мобильные)