.
Авторизация | Регистрация
Хочешь лучшие торренты? Добавь свой email!
Добавить

Торрент скачать бесплатно

  • support: webmaster@btracker.org
» » Миссия: невыполнима / Mission: Impossible (1996) HDRip [H.264] [MP4|1280x530] торрент скачать бесплатно


    Миссия: невыполнима / Mission: Impossible (1996) HDRip [H.264] [MP4|1280x530] торрент скачать бесплатно

    Опубликовал: Админ | Дата: 3-04-2018, 05:00 | .torrent скачали: 0

    Миссия: невыполнима / Mission: Impossible (1996) HDRip [H.264] [MP4|1280x530]Производство: США
    Жанр: Боевик, Триллер, Приключения
    Режиссер: Брайан Де Пальма
    Продюсер: Том Круз, Пола Вагнер, Дж.С. Калчиано
    Актеры: Том Круз, Джон Войт, Эммануэль Беар, Генри Черны, Жан Рено, Винг Рэймс, Кристин Скотт Томас, Ванесса Рэдгрейв, Дэйл Дай, Марсель Юрес

    Описание

    Агент ЦРУ Итан Хант оказался в положении подозреваемого в предательстве крота, из-за которого погибли несколько членов его команды, включая руководителя группы Джима Фелпса. В живых осталась еще только коллега Ханта — жена Фелпса агент Клэр. Чтобы снять с себя обвинения в предательстве, Ханту надо найти настоящего крота.

    Возраст: 12+ (зрителям, достигшим 12 лет)
    Рейтинг MPAA: PG-13 (детям до 13 лет просмотр нежелателен)
    Дата мировой премьеры: 20 мая 1996
    Продолжительность: 01: 50: 12
    Качество видео: HDRip
    Перевод: Многоголосый закадровый (Позитив-Мультимедия)
    Субтитры: Русские (полные), Английские (полные)
    Видео: AVC/H.264, 1280x530, ~1062 Kbps
    Аудио: AAC, 2 ch, ~129 Kbps

    Общее
    Полное имя : E: Download2Миссия невыполнима 1996 720p.mp4
    Формат : MPEG-4
    Профиль формата : Base Media
    Идентификатор кодека : isom (isom/avc1)
    Размер файла : 941 Мбайт
    Продолжительность : 1 ч. 50 м.
    Режим общего битрейта : Переменный
    Общий поток : 1194 Кбит/сек
    Дата кодирования : UTC 2018-03-29 12: 51: 57
    Дата пометки : UTC 2018-03-29 12: 51: 57
    Видео
    Идентификатор : 1
    Формат : AVC
    Формат/Информация : Advanced Video Codec
    Профиль формата : High@L3.1
    Настройки формата : CABAC/1 Ref Frames
    Параметр CABAC формата : Да
    Параметр RefFrames формата : 1 кадр
    Идентификатор кодека : avc1
    Идентификатор кодека/Информация : Advanced Video Coding
    Продолжительность : 1 ч. 50 м.
    Битрейт : 1062 Кбит/сек
    Максимальный битрейт : 4789 Кбит/сек
    Ширина : 1280 пикселей
    Высота : 530 пикселей
    Соотношение сторон : 2, 40: 1
    Режим частоты кадров : Постоянный
    Частота кадров : 23, 976 (24000/1001) кадра/сек
    Цветовое пространство : YUV
    Субдискретизация насыщенности : 4: 2: 0
    Битовая глубина : 8 бит
    Тип развёртки : Прогрессивная
    Бит/(Пиксели*Кадры) : 0.065
    Размер потока : 837 Мбайт (89%)
    Дата кодирования : UTC 2018-03-29 12: 51: 57
    Дата пометки : UTC 2018-03-29 12: 53: 08
    Цветовой диапазон : Limited
    Основные цвета : BT.709
    Характеристики трансфера : BT.709
    Коэффициенты матрицы : BT.709
    Аудио
    Идентификатор : 2
    Формат : AAC
    Формат/Информация : Advanced Audio Codec
    Профиль формата : LC
    Идентификатор кодека : mp4a-40-2
    Продолжительность : 1 ч. 50 м.
    Вид битрейта : Переменный
    Битрейт : 129 Кбит/сек
    Максимальный битрейт : 138 Кбит/сек
    Каналы : 2 канала
    Расположение каналов : Front: L R
    Частота : 48, 0 КГц
    Частота кадров : 46, 875 кадров/сек (1024 SPF)
    Метод сжатия : С потерями
    Размер потока : 101 Мбайт (11%)
    Заголовок : Многоголосый закадровый (Позитив-Мультимедия)
    Язык : Russian
    Дата кодирования : UTC 2018-03-29 12: 52: 50
    Дата пометки : UTC 2018-03-29 12: 53: 08
    Текст #1
    Идентификатор : 3
    Формат : Timed Text
    Идентификатор кодека : tx3g
    Продолжительность : 1 ч. 45 м.
    Вид битрейта : Переменный
    Битрейт : 70 бит/сек
    Размер потока : 54, 0 Кбайт (0%)
    Заголовок : Full
    Язык : Russian
    Forced : Нет
    Дата кодирования : UTC 2018-03-29 12: 53: 08
    Дата пометки : UTC 2018-03-29 12: 53: 08
    Текст #2
    Идентификатор : 4
    Формат : Timed Text
    Идентификатор кодека : tx3g
    Продолжительность : 1 ч. 45 м.
    Вид битрейта : Переменный
    Битрейт : 35 бит/сек
    Размер потока : 26, 9 Кбайт (0%)
    Заголовок : Full
    Язык : English
    Forced : Нет
    Дата кодирования : UTC 2018-03-29 12: 53: 08
    Дата пометки : UTC 2018-03-29 12: 53: 08
    Скриншоты:


    Все одноименные релизы в Клубе
    Время раздачи: с 8: 00 до 20: 00 (до появления первых 3-5 скачавших)


    Миссия: невыполнима/Mission: Impossible (1996) HDRip [H.264] [MP4|1280x530]
    Рейтинг →
     (голосов: 1, оценка 5/5, голосовать можно 1 раз )

    Другие торренты по теме:

  • Миссия: невыполнима 5 / Mission: Impossible 5 (2015) WEBRip [1080p] [Трейлер] [EN] скачать через торрент бесплатно
  • Миссия невыполнима: Племя изгоев / Mission: Impossible - Rogue Nation (2015) WEBRip [1080p] [Трейлер] скачать через торрент бесплатно
  • Миссия невыполнима: Племя изгоев / Mission: Impossible - Rogue Nation (2015) WEBRip [H.264 / 1080p] [Трейлер #2] скачать через торрент бесплатно
  • Миссия невыполнима: Племя изгоев / Mission: Impossible - Rogue Nation (2015) DCPRip [2К] [Трейлер] скачать через торрент бесплатно
  • Миссия невыполнима: Племя изгоев / Mission: Impossible - Rogue Nation (2015) TS [EN] скачать через торрент бесплатно
  • Миссия невыполнима: Протокол Фантом / Mission: Impossible - Ghost Protocol (2011) HDRip [AVO] скачать через торрент бесплатно
  • Миссия невыполнима 3 / Mission: Impossible 3 (2006) HDRip [AVO] скачать через торрент бесплатно
  • Миссия невыполнима / Mission: Impossible (1996) HDRip [AVO] скачать через торрент бесплатно


    • Комментарии (0):

      Информация

      Информация

        Посетители, находящиеся в группе Гости, не могут оставлять комментарии в данной новости.

        ↓ Меню




        ↓ Опрос

        Вы добавили сайт в закладки?
        Да
        Нет


        Top 10 за месяц (КПК и мобильные)