.
Авторизация | Регистрация
Хочешь лучшие торренты? Добавь свой email!
Добавить

Торрент скачать бесплатно

» » Я – легенда / I Am Legend (2007) HDRip [H.264] [MP4|1280x534] [Театральная версия] торрент скачать бесплатно


    Я – легенда / I Am Legend (2007) HDRip [H.264] [MP4|1280x534] [Театральная версия] торрент скачать бесплатно

    Опубликовал: Админ | Дата: 2-04-2018, 05:00 | .torrent скачали: 1

    Я – легенда / I Am Legend (2007) HDRip [H.264] [MP4|1280x534] [Театральная версия]Производство: США
    Жанр: Фантастика, Триллер, Драма, Ужасы
    Режиссер: Френсис Лоуренс
    Продюсер: Акива Голдсман, Дэвид Хейман, Джеймс Ласситер
    Актеры: Уилл Смит, Алиси Брага, Чарли Тахэн, Салли Ричардсон-Уитфилд, Уиллоу Смит, Даррел Фостер, Эйприл Грэйс, Дэш Майок, Джоанна Нумата, Эбби

    Описание

    Адаптация одноименного романа Ричарда Мэтисона о неизвестном вирусе, унесшем жизни половины населения земного шара, а остальную половину превратившего в вампиров. Сюжет строится вокруг единственного уцелевшего человека с необъяснимым иммунитетом, ночами держащего бесконечную осаду упырей, а днем пытающегося найти противоядие и выяснить причины эпидемии.

    Возраст: 16+ (зрителям, достигшим 16 лет)
    Рейтинг MPAA: PG-13 (детям до 13 лет просмотр нежелателен)
    Дата мировой премьеры: 5 декабря 2007
    Дата российской премьеры: 7 февраля 2008
    Продолжительность: 01: 40: 31
    Качество видео: HDRip
    Перевод: Дублированный (Лицензия)
    Субтитры: Русские (полные), Английские (полные)
    Видео: AVC/H.264, 1280x534, ~1064 Kbps
    Аудио: AAC, 2 ch, ~128 Kbps

    Общее
    Полное имя : E: Download2Я – легенда 2007 720p.mp4
    Формат : MPEG-4
    Профиль формата : Base Media
    Идентификатор кодека : isom (isom/avc1)
    Размер файла : 860 Мбайт
    Продолжительность : 1 ч. 40 м.
    Режим общего битрейта : Переменный
    Общий поток : 1195 Кбит/сек
    Дата кодирования : UTC 2018-02-25 16: 22: 57
    Дата пометки : UTC 2018-02-25 16: 22: 57
    Видео
    Идентификатор : 1
    Формат : AVC
    Формат/Информация : Advanced Video Codec
    Профиль формата : High@L3.1
    Настройки формата : CABAC/1 Ref Frames
    Параметр CABAC формата : Да
    Параметр RefFrames формата : 1 кадр
    Идентификатор кодека : avc1
    Идентификатор кодека/Информация : Advanced Video Coding
    Продолжительность : 1 ч. 40 м.
    Битрейт : 1064 Кбит/сек
    Максимальный битрейт : 5427 Кбит/сек
    Ширина : 1280 пикселей
    Высота : 534 пикселя
    Соотношение сторон : 2, 40: 1
    Режим частоты кадров : Постоянный
    Частота кадров : 23, 976 (24000/1001) кадра/сек
    Цветовое пространство : YUV
    Субдискретизация насыщенности : 4: 2: 0
    Битовая глубина : 8 бит
    Тип развёртки : Прогрессивная
    Бит/(Пиксели*Кадры) : 0.065
    Размер потока : 765 Мбайт (89%)
    Дата кодирования : UTC 2018-02-25 16: 22: 57
    Дата пометки : UTC 2018-02-25 16: 24: 31
    Цветовой диапазон : Limited
    Основные цвета : BT.709
    Характеристики трансфера : BT.709
    Коэффициенты матрицы : BT.709
    Аудио
    Идентификатор : 2
    Формат : AAC
    Формат/Информация : Advanced Audio Codec
    Профиль формата : LC
    Идентификатор кодека : mp4a-40-2
    Продолжительность : 1 ч. 40 м.
    Вид битрейта : Переменный
    Битрейт : 128 Кбит/сек
    Максимальный битрейт : 139 Кбит/сек
    Каналы : 2 канала
    Расположение каналов : Front: L R
    Частота : 48, 0 КГц
    Частота кадров : 46, 875 кадров/сек (1024 SPF)
    Метод сжатия : С потерями
    Размер потока : 92, 4 Мбайт (11%)
    Заголовок : Дублированный (Лицензия)
    Язык : Russian
    Дата кодирования : UTC 2018-02-25 16: 24: 12
    Дата пометки : UTC 2018-02-25 16: 24: 31
    Текст #1
    Идентификатор : 3
    Формат : Timed Text
    Идентификатор кодека : tx3g
    Продолжительность : 1 ч. 40 м.
    Вид битрейта : Переменный
    Битрейт : 45 бит/сек
    Размер потока : 32, 7 Кбайт (0%)
    Заголовок : Full
    Язык : Russian
    Forced : Нет
    Дата кодирования : UTC 2018-02-25 16: 24: 31
    Дата пометки : UTC 2018-02-25 16: 24: 31
    Текст #2
    Идентификатор : 4
    Формат : Timed Text
    Идентификатор кодека : tx3g
    Продолжительность : 1 ч. 40 м.
    Вид битрейта : Переменный
    Битрейт : 35 бит/сек
    Размер потока : 26, 0 Кбайт (0%)
    Заголовок : Full
    Язык : English
    Forced : Нет
    Дата кодирования : UTC 2018-02-25 16: 24: 31
    Дата пометки : UTC 2018-02-25 16: 24: 31
    Скриншоты:


    Все одноименные релизы в Клубе
    Время раздачи: с 9: 00 до 21: 00 (до появления первых 3-5 скачавших)


    Я – легенда/I Am Legend (2007) HDRip [H.264] [MP4|1280x534] [Театральная версия]
    Рейтинг →
     (голосов: 1, оценка 4/5, голосовать можно 1 раз )

    Другие торренты по теме:

  • Легенда / Legend (1985) BDRip [1080p] [Directors Cut]
  • Легенда / Legend (2015) WEBRip [H.264 / 1080p] [Трейлер] скачать через торрент бесплатно
  • Легенда / Legend (2015) TS [H.264 / 720p-LQ] скачать через торрент бесплатно
  • Легенда / Legend (2015) TS скачать через торрент бесплатно
  • Легенда / Legend (2015) DVDScr [Line] скачать через торрент бесплатно
  • Легенда / Legend (2015) DVDRip скачать через торрент бесплатно
  • Легенда / Legend (2015) WEBRip [H.264 / 720p-LQ] [Line]
  • Легенда / Legend (2015) WEBRip [H.264 / 1080p-LQ] [Line]


    • Комментарии (0):

      Информация

      Информация

        Посетители, находящиеся в группе Гости, не могут оставлять комментарии в данной новости.

        ↓ Меню




        ↓ Опрос

        Вы добавили сайт в закладки?
        Да
        Нет


        Top 10 за месяц (КПК и мобильные)