.
Авторизация | Регистрация
Хочешь лучшие торренты? Добавь свой email!
Добавить

Торрент скачать бесплатно

» » Я – легенда / I Am Legend (2007) HDRip [H.264] [MP4|1920x800] [Театральная версия] торрент скачать бесплатно


    Я – легенда / I Am Legend (2007) HDRip [H.264] [MP4|1920x800] [Театральная версия] торрент скачать бесплатно

    Опубликовал: Админ | Дата: 2-04-2018, 05:00 | .torrent скачали: 0

    Я – легенда / I Am Legend (2007) HDRip [H.264] [MP4|1920x800] [Театральная версия]Производство: США
    Жанр: Фантастика, Триллер, Драма, Ужасы
    Режиссер: Френсис Лоуренс
    Продюсер: Акива Голдсман, Дэвид Хейман, Джеймс Ласситер
    Актеры: Уилл Смит, Алиси Брага, Чарли Тахэн, Салли Ричардсон-Уитфилд, Уиллоу Смит, Даррел Фостер, Эйприл Грэйс, Дэш Майок, Джоанна Нумата, Эбби

    Описание

    Адаптация одноименного романа Ричарда Мэтисона о неизвестном вирусе, унесшем жизни половины населения земного шара, а остальную половину превратившего в вампиров. Сюжет строится вокруг единственного уцелевшего человека с необъяснимым иммунитетом, ночами держащего бесконечную осаду упырей, а днем пытающегося найти противоядие и выяснить причины эпидемии.

    Возраст: 16+ (зрителям, достигшим 16 лет)
    Рейтинг MPAA: PG-13 (детям до 13 лет просмотр нежелателен)
    Дата мировой премьеры: 5 декабря 2007
    Дата российской премьеры: 7 февраля 2008
    Продолжительность: 01: 40: 31
    Качество видео: HDRip
    Перевод: Дублированный (Лицензия)
    Субтитры: Русские (полные), Английские (полные)
    Видео: AVC/H.264, 1920x800, ~1624 Kbps
    Аудио: AC3, 6 ch, 384 Kbps

    Общее
    Полное имя : E: Download2Я – легенда 2007 1080p.mp4
    Формат : MPEG-4
    Профиль формата : Base Media
    Идентификатор кодека : isom (isom/avc1/iso6)
    Размер файла : 1, 41 Гбайт
    Продолжительность : 1 ч. 40 м.
    Режим общего битрейта : Переменный
    Общий поток : 2010 Кбит/сек
    Дата кодирования : UTC 2018-02-25 16: 27: 13
    Дата пометки : UTC 2018-02-25 16: 27: 13
    Видео
    Идентификатор : 1
    Формат : AVC
    Формат/Информация : Advanced Video Codec
    Профиль формата : High@L4
    Настройки формата : CABAC/2 Ref Frames
    Параметр CABAC формата : Да
    Параметр RefFrames формата : 2 кадра
    Идентификатор кодека : avc1
    Идентификатор кодека/Информация : Advanced Video Coding
    Продолжительность : 1 ч. 40 м.
    Битрейт : 1624 Кбит/сек
    Максимальный битрейт : 8042 Кбит/сек
    Ширина : 1920 пикселей
    Высота : 800 пикселей
    Соотношение сторон : 2, 40: 1
    Режим частоты кадров : Постоянный
    Частота кадров : 23, 976 (24000/1001) кадра/сек
    Цветовое пространство : YUV
    Субдискретизация насыщенности : 4: 2: 0
    Битовая глубина : 8 бит
    Тип развёртки : Прогрессивная
    Бит/(Пиксели*Кадры) : 0.044
    Размер потока : 1, 14 Гбайт (81%)
    Дата кодирования : UTC 2018-02-25 16: 27: 13
    Дата пометки : UTC 2018-02-25 16: 29: 42
    Цветовой диапазон : Limited
    Основные цвета : BT.709
    Характеристики трансфера : BT.709
    Коэффициенты матрицы : BT.709
    Аудио
    Идентификатор : 2
    Формат : AC-3
    Формат/Информация : Audio Coding 3
    Параметр Endianness формата : Big
    Идентификатор кодека : ac-3
    Продолжительность : 1 ч. 40 м.
    Вид битрейта : Постоянный
    Битрейт : 384 Кбит/сек
    Максимальный битрейт : 406 Кбит/сек
    Каналы : 6 каналов
    Расположение каналов : Front: L C R, Side: L R, LFE
    Частота : 48, 0 КГц
    Частота кадров : 31, 250 кадров/сек (1536 SPF)
    Битовая глубина : 16 бит
    Метод сжатия : С потерями
    Размер потока : 276 Мбайт (19%)
    Заголовок : Дублированный (Лицензия)
    Язык : Russian
    ServiceKind/String : Complete Main
    Дата кодирования : UTC 2018-02-25 16: 29: 12
    Дата пометки : UTC 2018-02-25 16: 29: 42
    Текст #1
    Идентификатор : 3
    Формат : Timed Text
    Идентификатор кодека : tx3g
    Продолжительность : 1 ч. 40 м.
    Вид битрейта : Переменный
    Битрейт : 45 бит/сек
    Размер потока : 32, 7 Кбайт (0%)
    Заголовок : Full
    Язык : Russian
    Forced : Нет
    Дата кодирования : UTC 2018-02-25 16: 29: 42
    Дата пометки : UTC 2018-02-25 16: 29: 42
    Текст #2
    Идентификатор : 4
    Формат : Timed Text
    Идентификатор кодека : tx3g
    Продолжительность : 1 ч. 40 м.
    Вид битрейта : Переменный
    Битрейт : 35 бит/сек
    Размер потока : 26, 0 Кбайт (0%)
    Заголовок : Full
    Язык : English
    Forced : Нет
    Дата кодирования : UTC 2018-02-25 16: 29: 42
    Дата пометки : UTC 2018-02-25 16: 29: 42
    Скриншоты:


    Все одноименные релизы в Клубе
    Время раздачи: с 9: 00 до 21: 00 (до появления первых 3-5 скачавших)


    Я – легенда/I Am Legend (2007) HDRip [H.264] [MP4|1920x800] [Театральная версия]
    Рейтинг →
     (голосов: 1, оценка 4/5, голосовать можно 1 раз )

    Другие торренты по теме:

  • Легенда / Legend (1985) BDRip [1080p] [Directors Cut]
  • Легенда / Legend (2015) WEBRip [H.264 / 1080p] [Трейлер] скачать через торрент бесплатно
  • Легенда / Legend (2015) TS [H.264 / 720p-LQ] скачать через торрент бесплатно
  • Легенда / Legend (2015) TS скачать через торрент бесплатно
  • Легенда / Legend (2015) DVDScr [Line] скачать через торрент бесплатно
  • Легенда / Legend (2015) DVDRip скачать через торрент бесплатно
  • Легенда / Legend (2015) WEBRip [H.264 / 720p-LQ] [Line]
  • Легенда / Legend (2015) WEBRip [H.264 / 1080p-LQ] [Line]


    • Комментарии (0):

      Информация

      Информация

        Посетители, находящиеся в группе Гости, не могут оставлять комментарии в данной новости.

        ↓ Меню




        ↓ Опрос

        Вы добавили сайт в закладки?
        Да
        Нет


        Top 10 за месяц (КПК и мобильные)