.
Авторизация | Регистрация
Хочешь лучшие торренты? Добавь свой email!
Добавить

Торрент скачать бесплатно

» » Все деньги мира / All the Money in the World (2017) HDRip [H.264] [MP4|1920x800] торрент скачать бесплатно


    Все деньги мира / All the Money in the World (2017) HDRip [H.264] [MP4|1920x800] торрент скачать бесплатно

    Опубликовал: Админ | Дата: 1-04-2018, 05:01 | .torrent скачали: 2

    Все деньги мира / All the Money in the World (2017) HDRip [H.264] [MP4|1920x800]Производство: США
    Жанр: Триллер, Драма, Криминал, Детектив
    Режиссер: Ридли Скотт
    Продюсер: Крис Кларк, Квентин Кертис, Дэн Фридкин
    Актеры: Мишель Уильямс, Кристофер Пламмер, Марк Уолберг, Ромен Дюрис, Тимоти Хаттон, Чарли Пламмер, Чарли Шотуэлл, Эндрю Бакан, Марко Леонарди, Джузеппе Бонифати, Николас Вапоридис, Андреа Пьедимонте

    Описание

    Во всем мире не было человека богаче, чем Пол Гетти. Принадлежать к его роду — все равно что быть богом. Однако, когда в Риме неизвестные похищают его внука, нефтяной магнат, ко всеобщему шоку, наотрез отказывается платить выкуп. И тогда единственной надеждой для матери мальчика становится таинственный сотрудник службы безопасности самого Гетти…

    Возраст: 18+ (зрителям, достигшим 18 лет. запрещено для детей)
    Рейтинг MPAA: R (лицам до 17 лет обязательно присутствие взрослого)
    Дата мировой премьеры: 18 декабря 2017
    Дата российской премьеры: 22 февраля 2018
    Продолжительность: 02: 12: 41
    Качество видео: HDRip
    Перевод: Дублированный (iTunes)
    Субтитры: Русские (полные), Английские (полные)
    Видео: AVC/H.264, 1920x800, ~1651 Kbps
    Аудио: AC3, 6 ch, 384 Kbps

    Общее
    Полное имя : E: Download2Все деньги мира 2017 1080p.mp4
    Формат : MPEG-4
    Профиль формата : Base Media
    Идентификатор кодека : isom (isom/avc1/iso6)
    Размер файла : 1, 89 Гбайт
    Продолжительность : 2 ч. 12 м.
    Режим общего битрейта : Переменный
    Общий поток : 2037 Кбит/сек
    Дата кодирования : UTC 2018-03-31 06: 25: 36
    Дата пометки : UTC 2018-03-31 06: 25: 36
    Видео
    Идентификатор : 1
    Формат : AVC
    Формат/Информация : Advanced Video Codec
    Профиль формата : High@L4
    Настройки формата : CABAC/2 Ref Frames
    Параметр CABAC формата : Да
    Параметр RefFrames формата : 2 кадра
    Идентификатор кодека : avc1
    Идентификатор кодека/Информация : Advanced Video Coding
    Продолжительность : 2 ч. 12 м.
    Битрейт : 1651 Кбит/сек
    Максимальный битрейт : 8393 Кбит/сек
    Ширина : 1920 пикселей
    Высота : 800 пикселей
    Соотношение сторон : 2, 40: 1
    Режим частоты кадров : Постоянный
    Частота кадров : 23, 976 (24000/1001) кадра/сек
    Цветовое пространство : YUV
    Субдискретизация насыщенности : 4: 2: 0
    Битовая глубина : 8 бит
    Тип развёртки : Прогрессивная
    Бит/(Пиксели*Кадры) : 0.045
    Размер потока : 1, 53 Гбайт (81%)
    Дата кодирования : UTC 2018-03-31 06: 25: 36
    Дата пометки : UTC 2018-03-31 06: 27: 36
    Цветовой диапазон : Limited
    Основные цвета : BT.709
    Характеристики трансфера : BT.709
    Коэффициенты матрицы : BT.709
    Аудио
    Идентификатор : 2
    Формат : AC-3
    Формат/Информация : Audio Coding 3
    Параметр Endianness формата : Big
    Идентификатор кодека : ac-3
    Продолжительность : 2 ч. 12 м.
    Вид битрейта : Постоянный
    Битрейт : 384 Кбит/сек
    Максимальный битрейт : 406 Кбит/сек
    Каналы : 6 каналов
    Расположение каналов : Front: L C R, Side: L R, LFE
    Частота : 48, 0 КГц
    Частота кадров : 31, 250 кадров/сек (1536 SPF)
    Битовая глубина : 16 бит
    Метод сжатия : С потерями
    Размер потока : 364 Мбайт (19%)
    Заголовок : Дублированный (iTunes)
    Язык : Russian
    ServiceKind/String : Complete Main
    Дата кодирования : UTC 2018-03-31 06: 27: 05
    Дата пометки : UTC 2018-03-31 06: 27: 36
    Текст #1
    Идентификатор : 3
    Формат : Timed Text
    Идентификатор кодека : tx3g
    Продолжительность : 2 ч. 7 м.
    Вид битрейта : Переменный
    Битрейт : 97 бит/сек
    Размер потока : 90, 5 Кбайт (0%)
    Заголовок : Full
    Язык : Russian
    Forced : Нет
    Дата кодирования : UTC 2018-03-31 06: 27: 36
    Дата пометки : UTC 2018-03-31 06: 27: 36
    Текст #2
    Идентификатор : 4
    Формат : Timed Text
    Идентификатор кодека : tx3g
    Продолжительность : 2 ч. 7 м.
    Вид битрейта : Переменный
    Битрейт : 63 бит/сек
    Размер потока : 58, 7 Кбайт (0%)
    Заголовок : Full
    Язык : English
    Forced : Нет
    Дата кодирования : UTC 2018-03-31 06: 27: 36
    Дата пометки : UTC 2018-03-31 06: 27: 36
    Скриншоты:


    Все одноименные релизы в Клубе
    Время раздачи: с 9: 00 до 21: 00 (до появления первых 3-5 скачавших)


    Все деньги мира/All the Money in the World (2017) HDRip [H.264] [MP4|1920x800]
    Рейтинг →
     (голосов: 1, оценка 3/5, голосовать можно 1 раз )

    Другие торренты по теме:

  • Александр Щелоков | Деньги мира: занимательные факты, курьезы, истории (2011) [PDF] скачать через торрент бесплатно
  • Все деньги мира / All the Money in the World (2017) BDRemux [H.264 / 1080p] [EN / EN, Fr, Sp Sub]
  • Все деньги мира / All the Money in the World (2017) BDRip
  • Все деньги мира / All the Money in the World (2017) BDRip [H.264]
  • Все деньги мира / All the Money in the World (2017) BDRip
  • Все деньги мира / All the Money in the World (2017) BDRip
  • Все деньги мира / All the Money in the World (2017) BDRip [H.264 / 1080p]
  • Все деньги мира / All the Money in the World (2017) BDRemux [H.264 / 1080p]


    • Комментарии (0):

      Информация

      Информация

        Посетители, находящиеся в группе Гости, не могут оставлять комментарии в данной новости.

        ↓ Меню




        ↓ Опрос

        Вы добавили сайт в закладки?
        Да
        Нет


        Top 10 за месяц (КПК и мобильные)