.
Авторизация | Регистрация
Хочешь лучшие торренты? Добавь свой email!
Добавить

Торрент скачать бесплатно

» » Человек-паук 3: Враг в отражении / Spider-Man 3 (2007) HDRip [H.264] [MP4|1920x800] торрент скачать бесплатно


    Человек-паук 3: Враг в отражении / Spider-Man 3 (2007) HDRip [H.264] [MP4|1920x800] торрент скачать бесплатно

    Опубликовал: Админ | Дата: 31-03-2018, 05:00 | .torrent скачали: 0

    Человек-паук 3: Враг в отражении / Spider-Man 3 (2007) HDRip [H.264] [MP4|1920x800]Производство: США
    Жанр: Фантастика, Боевик, Приключения
    Режиссер: Сэм Рэйми
    Продюсер: Ави Арад, Грант Кертис, Лора Зискин
    Актеры: Тоби Магуайр, Кирстен Данст, Джеймс Франко, Томас Хейден Чёрч, Тофер Грейс, Брайс Даллас Ховард, Розмари Харрис, Дж.К. Симмонс, Джеймс Кромуэлл, Илья Баскин

    Описание

    Прошло пять лет с тех пор, как Питер осознал, что с Великой силой приходит Великая ответственность!, и три года с тех пор, как он отказался быть борцом за справедливость. Но сейчас кажется, Питер прекрасно научился жить несколькими жизнями. Он хорошо учится, Нью-Йорк признал его героем, отношения с Мэри Джейн прочные. Питер даже намеревается сделать ей предложение! Но к сожалению, его лучший друг Гарри Озборн по-прежнему считает, что именно Человек-паук несет ответственность за безвременную кончину его отца. Гарри намеревается отомстить ему в образе Нового Гоблина. В то же самое время на криминальной сцене Нью-Йорка появляется другой могущественный суперзлодей, известный как Песочный Человек. Когда Человек-паук надевает таинственный черный костюм, его темная, более мстительная сторона полностью поглощает его. Эти трансформации заставляют его встретиться с самым сильным противником ― с самим собой…

    Возраст: 12+ (зрителям, достигшим 12 лет)
    Рейтинг MPAA: PG-13 (детям до 13 лет просмотр нежелателен)
    Дата мировой премьеры: 3 апреля 2007
    Дата российской премьеры: 3 мая 2007
    Продолжительность: 02: 19: 11
    Качество видео: HDRip
    Перевод: Дублированный (Лицензия)
    Субтитры: Русские (полные), Английские (полные)
    Видео: AVC/H.264, 1920x800, ~2290 Kbps
    Аудио: AC3, 6 ch, 384 Kbps

    Общее
    Полное имя : E: Download2Человек-паук 3 Враг в отражении 2007 1080p.mp4
    Формат : MPEG-4
    Профиль формата : Base Media
    Идентификатор кодека : isom (isom/avc1/iso6)
    Размер файла : 2, 60 Гбайт
    Продолжительность : 2 ч. 19 м.
    Режим общего битрейта : Переменный
    Общий поток : 2676 Кбит/сек
    Дата кодирования : UTC 2018-03-26 11: 20: 54
    Дата пометки : UTC 2018-03-26 11: 20: 54
    Видео
    Идентификатор : 1
    Формат : AVC
    Формат/Информация : Advanced Video Codec
    Профиль формата : High@L4
    Настройки формата : CABAC/2 Ref Frames
    Параметр CABAC формата : Да
    Параметр RefFrames формата : 2 кадра
    Идентификатор кодека : avc1
    Идентификатор кодека/Информация : Advanced Video Coding
    Продолжительность : 2 ч. 19 м.
    Битрейт : 2290 Кбит/сек
    Максимальный битрейт : 7618 Кбит/сек
    Ширина : 1920 пикселей
    Высота : 800 пикселей
    Соотношение сторон : 2, 40: 1
    Режим частоты кадров : Постоянный
    Частота кадров : 23, 976 (24000/1001) кадра/сек
    Цветовое пространство : YUV
    Субдискретизация насыщенности : 4: 2: 0
    Битовая глубина : 8 бит
    Тип развёртки : Прогрессивная
    Бит/(Пиксели*Кадры) : 0.062
    Размер потока : 2, 23 Гбайт (86%)
    Дата кодирования : UTC 2018-03-26 11: 20: 54
    Дата пометки : UTC 2018-03-26 11: 23: 45
    Цветовой диапазон : Limited
    Основные цвета : BT.709
    Характеристики трансфера : BT.709
    Коэффициенты матрицы : BT.709
    Аудио
    Идентификатор : 2
    Формат : AC-3
    Формат/Информация : Audio Coding 3
    Параметр Endianness формата : Big
    Идентификатор кодека : ac-3
    Продолжительность : 2 ч. 19 м.
    Вид битрейта : Постоянный
    Битрейт : 384 Кбит/сек
    Максимальный битрейт : 406 Кбит/сек
    Каналы : 6 каналов
    Расположение каналов : Front: L C R, Side: L R, LFE
    Частота : 48, 0 КГц
    Частота кадров : 31, 250 кадров/сек (1536 SPF)
    Битовая глубина : 16 бит
    Метод сжатия : С потерями
    Размер потока : 382 Мбайт (14%)
    Заголовок : Дублированный (Лицензия)
    Язык : Russian
    ServiceKind/String : Complete Main
    Дата кодирования : UTC 2018-03-26 11: 23: 07
    Дата пометки : UTC 2018-03-26 11: 23: 45
    Текст #1
    Идентификатор : 3
    Формат : Timed Text
    Идентификатор кодека : tx3g
    Продолжительность : 2 ч. 11 м.
    Вид битрейта : Переменный
    Битрейт : 65 бит/сек
    Размер потока : 63, 0 Кбайт (0%)
    Заголовок : Full
    Язык : Russian
    Forced : Нет
    Дата кодирования : UTC 2018-03-26 11: 23: 45
    Дата пометки : UTC 2018-03-26 11: 23: 45
    Текст #2
    Идентификатор : 4
    Формат : Timed Text
    Идентификатор кодека : tx3g
    Продолжительность : 2 ч. 17 м.
    Вид битрейта : Переменный
    Битрейт : 47 бит/сек
    Размер потока : 47, 9 Кбайт (0%)
    Заголовок : Full
    Язык : English
    Forced : Нет
    Дата кодирования : UTC 2018-03-26 11: 23: 45
    Дата пометки : UTC 2018-03-26 11: 23: 45
    Скриншоты:


    Все одноименные релизы в Клубе
    Время раздачи: с 9: 00 до 21: 00 (до появления первых 3-5 скачавших)


    Человек-паук 3: Враг в отражении/Spider-Man 3 (2007) HDRip [H.264] [MP4|1920x800]
    Рейтинг →
     (голосов: 1, оценка 4/5, голосовать можно 1 раз )

    Другие торренты по теме:

  • Человек-паук 3: Враг в отражении / Spider-Man 3 (2007) WEB-DL [H.264 / 2160p] скачать через торрент бесплатно
  • Человек-паук 3: Враг в отражении / Spider-Man 3 (2007) BDRip [H.265 / 1080p-LQ]
  • Человек-паук 3: Враг в отражении / Spider-Man 3 (2007) UHD Blu-ray [H.265 / 2160p] [4K, HDR, 10-bit]
  • Человек-паук 3: Враг в отражении / Spider-Man 3 (2007) HDRip [H.264] [MP4|1280x534]


    • Комментарии (0):

      Информация

      Информация

        Посетители, находящиеся в группе Гости, не могут оставлять комментарии в данной новости.

        ↓ Меню




        ↓ Опрос

        Вы добавили сайт в закладки?
        Да
        Нет


        Top 10 за месяц (КПК и мобильные)