.
Авторизация | Регистрация
Хочешь лучшие торренты? Добавь свой email!
Добавить

Торрент скачать бесплатно

  • support: webmaster@btracker.org
» » Добро пожаловать, или Посторонним вход воспрещен (1964) WEB-DL [H.264] [MP4|1484x1080] торрент скачать бесплатно


    Добро пожаловать, или Посторонним вход воспрещен (1964) WEB-DL [H.264] [MP4|1484x1080] торрент скачать бесплатно

    Опубликовал: Админ | Дата: 31-03-2018, 05:00 | .torrent скачали: 3

    Добро пожаловать, или Посторонним вход воспрещен (1964) WEB-DL [H.264] [MP4|1484x1080]Производство: СССР
    Жанр: Комедия, семейный
    Режиссер: Элем Климов
    Актеры: Виктор Косых, Евгений Евстигнеев, Арина Алейникова, Илья Рутберг, Лидия Смирнова, Алексей Смирнов, Нина Шацкая, Лидия Волкова, Татьяна Барышева, Александр Байков

    Описание

    Пионер Костя Иночкин, будучи в пионерском лагере, переплыл реку и оказался на запретной для посещений территории, за что и был изгнан его начальником товарищем Дыниным. Не желая доводить бабушку до инфаркта своим досрочным прибытием, мальчик тайно возвращается в лагерь, где пионеры так же тайно содержат его и предпринимают все меры, чтобы не состоялся родительский день. Ведь именно в этот день Костина бабушка заявится в лагерь…

    Возраст: 6+ (зрителям, достигшим 6 лет)
    Релиз от: Алехаndr
    Продолжительность: 01: 10: 10
    Качество видео: WEB-DL
    Субтитры: Отсутствуют
    Видео: AVC/H.264, 1484x1080, ~3105 Kbps
    Аудио: AAC, 2 ch, 126 Kbps

    Общее
    Полное имя : G: Добро пожаловать, или Посторонним вход воспрещен (1964).by.Алехаndr.mp4
    Формат : MPEG-4
    Профиль формата : Base Media
    Идентификатор кодека : isom (isom/iso2/avc1/mp41)
    Размер файла : 1, 59 Гбайт
    Продолжительность : 1 ч. 10 м.
    Общий поток : 3236 Кбит/сек
    Программа кодирования : Lavf56.40.101
    Видео
    Идентификатор : 1
    Формат : AVC
    Формат/Информация : Advanced Video Codec
    Профиль формата : High@L4
    Настройки формата : CABAC/2 Ref Frames
    Параметр CABAC формата : Да
    Параметр RefFrames формата : 2 кадра
    Идентификатор кодека : avc1
    Идентификатор кодека/Информация : Advanced Video Coding
    Продолжительность : 1 ч. 10 м.
    Duration_FirstFrame : -40 мс.
    Битрейт : 3104 Кбит/сек
    Ширина : 1484 пикселя
    Высота : 1080 пикселей
    Соотношение сторон : 1, 374
    Режим частоты кадров : Переменный
    Частота кадров : 25, 000 кадров/сек
    Минимальная частота кадров : 25, 000 кадров/сек
    Максимальная частота кадров : 25, 014 кадров/сек
    Цветовое пространство : YUV
    Субдискретизация насыщенности : 4: 2: 0
    Битовая глубина : 8 бит
    Тип развёртки : Прогрессивная
    Бит/(Пиксели*Кадры) : 0.077
    Размер потока : 1, 52 Гбайт (96%)
    Цветовой диапазон : Limited
    Основные цвета : BT.709
    Характеристики трансфера : BT.709
    Коэффициенты матрицы : BT.709
    Аудио
    Идентификатор : 2
    Формат : AAC
    Формат/Информация : Advanced Audio Codec
    Профиль формата : LC
    Идентификатор кодека : mp4a-40-2
    Продолжительность : 1 ч. 10 м.
    Вид битрейта : Постоянный
    Битрейт : 126 Кбит/сек
    Каналы : 2 канала
    Расположение каналов : Front: L R
    Частота : 44, 1 КГц
    Частота кадров : 43, 066 кадра/сек (1024 SPF)
    Метод сжатия : С потерями
    Размер потока : 63, 0 Мбайт (4%)
    Default : Да
    AlternateGroup/String : 1
    Скриншоты:


    Все одноименные релизы в Клубе
    Время раздачи: 24/7 (круглосуточно) (до появления первых 3-5 скачавших)


    Добро пожаловать, или Посторонним вход воспрещен (1964) WEB-DL [H.264] [MP4|1484x1080]
    Рейтинг →
     (голосов: 1, оценка 4/5, голосовать можно 1 раз )

    Другие торренты по теме:

  • Добро пожаловать в Нью-Йорк / Welcome to New York (2014) BDRemux [1080p] скачать через торрент бесплатно
  • Добро пожаловать в Нью-Йорк / Welcome to New York (2014) BDRip [1080p] ATV скачать через торрент бесплатно
  • Добро пожаловать в Нью-Йорк / Welcome to New York (2014) BDRip [720p] ATV
  • Добро пожаловать или посторонним вход воспрещён (1964) DVDRip [hand made colored] скачать через торрент бесплатно
  • Добро пожаловать в ПОП / Pop Redemption (2013) BDRip [H.264]
  • Добро пожаловать или Посторонним вход воспрещён (1964) BDRip [1080p] [hand made colored] скачать через торрент бесплатно
  • Добро пожаловать в Zомбилэнд / Zombieland (2009) BDRip [720p] [hand made 60fps] скачать через торрент бесплатно
  • Добро пожаловать в рай / Vice (2015) WEB-DL [720p] [EN / EN Sub]


    • Комментарии (0):

      Информация

      Информация

        Посетители, находящиеся в группе Гости, не могут оставлять комментарии в данной новости.

        ↓ Меню




        ↓ Опрос

        Вы добавили сайт в закладки?
        Да
        Нет


        Top 10 за месяц (КПК и мобильные)