.
Авторизация | Регистрация
Хочешь лучшие торренты? Добавь свой email!
Добавить

Торрент скачать бесплатно

  • support: webmaster@btracker.org
» » Человек-паук 2 / Spider-Man 2 (2004) HDRip [H.264] [MP4|1920x804] торрент скачать бесплатно


    Человек-паук 2 / Spider-Man 2 (2004) HDRip [H.264] [MP4|1920x804] торрент скачать бесплатно

    Опубликовал: Админ | Дата: 30-03-2018, 05:00 | .torrent скачали: 0

    Человек-паук 2 / Spider-Man 2 (2004) HDRip [H.264] [MP4|1920x804]Производство: США
    Жанр: Фантастика, Боевик, Приключения
    Режиссер: Сэм Рэйми
    Продюсер: Ави Арад, Лора Зискин, Джозеф М. Караччоло
    Актеры: Тоби Магуайр, Кирстен Данст, Джеймс Франко, Альфред Молина, Розмари Харрис, Дж.К. Симмонс, Донна Мерфи, Дэниэл Гиллис, Дилан Бейкер, Билл Нанн

    Описание

    Тихоня Питер Паркер балансирует на грани двух своих жизней: супергероя Человека-паука и обычного студента колледжа. Его отношения со всеми, кто ему дорог, в опасности или зашли в тупик. А жизнь приготовила ему новое испытание. Он должен использовать все свои суперспособности, чтобы одолеть жестокого безумца доктора Отто Октавиуса.

    Возраст: 12+ (зрителям, достигшим 12 лет)
    Рейтинг MPAA: PG-13 (детям до 13 лет просмотр нежелателен)
    Дата мировой премьеры: 25 июня 2004
    Дата российской премьеры: 30 июня 2004
    Продолжительность: 02: 07: 28
    Качество видео: HDRip
    Перевод: Дублированный (Лицензия)
    Субтитры: Русские (полные), Английские (полные)
    Видео: AVC/H.264, 1920x804, ~2416 Kbps
    Аудио: AC3, 6 ch, 384 Kbps

    Общее
    Полное имя : E: Download2Человек-паук 2 2004 1080p.mp4
    Формат : MPEG-4
    Профиль формата : Base Media
    Идентификатор кодека : isom (isom/avc1/iso6)
    Размер файла : 2, 49 Гбайт
    Продолжительность : 2 ч. 7 м.
    Режим общего битрейта : Переменный
    Общий поток : 2802 Кбит/сек
    Дата кодирования : UTC 2018-03-27 08: 50: 20
    Дата пометки : UTC 2018-03-27 08: 50: 20
    Видео
    Идентификатор : 1
    Формат : AVC
    Формат/Информация : Advanced Video Codec
    Профиль формата : High@L4
    Настройки формата : CABAC/2 Ref Frames
    Параметр CABAC формата : Да
    Параметр RefFrames формата : 2 кадра
    Идентификатор кодека : avc1
    Идентификатор кодека/Информация : Advanced Video Coding
    Продолжительность : 2 ч. 7 м.
    Битрейт : 2416 Кбит/сек
    Максимальный битрейт : 6862 Кбит/сек
    Ширина : 1920 пикселей
    Высота : 804 пикселя
    Соотношение сторон : 2, 40: 1
    Режим частоты кадров : Постоянный
    Частота кадров : 23, 976 (24000/1001) кадра/сек
    Цветовое пространство : YUV
    Субдискретизация насыщенности : 4: 2: 0
    Битовая глубина : 8 бит
    Тип развёртки : Прогрессивная
    Бит/(Пиксели*Кадры) : 0.065
    Размер потока : 2, 15 Гбайт (86%)
    Дата кодирования : UTC 2018-03-27 08: 50: 20
    Дата пометки : UTC 2018-03-27 08: 54: 30
    Цветовой диапазон : Limited
    Основные цвета : BT.709
    Характеристики трансфера : BT.709
    Коэффициенты матрицы : BT.709
    Аудио
    Идентификатор : 2
    Формат : AC-3
    Формат/Информация : Audio Coding 3
    Параметр Endianness формата : Big
    Идентификатор кодека : ac-3
    Продолжительность : 2 ч. 7 м.
    Вид битрейта : Постоянный
    Битрейт : 384 Кбит/сек
    Максимальный битрейт : 406 Кбит/сек
    Каналы : 6 каналов
    Расположение каналов : Front: L C R, Side: L R, LFE
    Частота : 48, 0 КГц
    Частота кадров : 31, 250 кадров/сек (1536 SPF)
    Битовая глубина : 16 бит
    Метод сжатия : С потерями
    Размер потока : 350 Мбайт (14%)
    Заголовок : Дублированный (Лицензия)
    Язык : Russian
    ServiceKind/String : Complete Main
    Дата кодирования : UTC 2018-03-27 08: 53: 55
    Дата пометки : UTC 2018-03-27 08: 54: 30
    Текст #1
    Идентификатор : 3
    Формат : Timed Text
    Идентификатор кодека : tx3g
    Продолжительность : 2 ч. 1 м.
    Вид битрейта : Переменный
    Битрейт : 74 бит/сек
    Размер потока : 65, 9 Кбайт (0%)
    Заголовок : Full
    Язык : Russian
    Forced : Нет
    Дата кодирования : UTC 2018-03-27 08: 54: 30
    Дата пометки : UTC 2018-03-27 08: 54: 30
    Текст #2
    Идентификатор : 4
    Формат : Timed Text
    Идентификатор кодека : tx3g
    Продолжительность : 2 ч. 1 м.
    Вид битрейта : Переменный
    Битрейт : 42 бит/сек
    Размер потока : 37, 8 Кбайт (0%)
    Заголовок : Full
    Язык : English
    Forced : Нет
    Дата кодирования : UTC 2018-03-27 08: 54: 30
    Дата пометки : UTC 2018-03-27 08: 54: 30
    Скриншоты:


    Все одноименные релизы в Клубе
    Время раздачи: с 9: 00 до 21: 00 (до появления первых 3-5 скачавших)


    Человек-паук 2/Spider-Man 2 (2004) HDRip [H.264] [MP4|1920x804]
    Рейтинг →
     (голосов: 1, оценка 5/5, голосовать можно 1 раз )

    Другие торренты по теме:

  • Человек-Паук / Spider-Man (2002) BDRip [H.264 / 1080p] [hand made 60fps] скачать через торрент бесплатно
  • Человек-Паук / Spider-Man (2002) WEB-DL [H.264 / 2160p] скачать через торрент бесплатно
  • Человек-Паук / Spider-Man: The Animated Series (1994-1998) DVDRip [H.264] (Сезон 1-5, Серии 01-65 из 65)
  • Человек-паук / Spider-man (2002) BDRip [H.265 / 1080p-LQ]
  • Человек-Паук / Spider-Man: The Animated Series (1994-1998) BDRip [H.265 / 1080p-LQ] (Сезон 1-5, Серии 01-65 из 65)
  • Человек-паук / Spider-Man (2002) HDRip [H.264] [MP4|1280x694]
  • Человек-паук / Spider-Man (2002) HDRip [H.264] [MP4|1920x1040]
  • Человек-паук / Spider-Man (1994) DVDRip (Сезоны 1-5, серии 1-2 из 65) [Обновляемая]


    • Комментарии (0):

      Информация

      Информация

        Посетители, находящиеся в группе Гости, не могут оставлять комментарии в данной новости.

        ↓ Меню




        ↓ Опрос

        Вы добавили сайт в закладки?
        Да
        Нет


        Top 10 за месяц (КПК и мобильные)