.
Авторизация | Регистрация
Хочешь лучшие торренты? Добавь свой email!
Добавить

Торрент скачать бесплатно

» » Человек-паук 2 / Spider-Man 2 (2004) HDRip [H.264] [MP4|1280x536] торрент скачать бесплатно


    Человек-паук 2 / Spider-Man 2 (2004) HDRip [H.264] [MP4|1280x536] торрент скачать бесплатно

    Опубликовал: Админ | Дата: 30-03-2018, 05:00 | .torrent скачали: 0

    Человек-паук 2 / Spider-Man 2 (2004) HDRip [H.264] [MP4|1280x536]Производство: США
    Жанр: Фантастика, Боевик, Приключения
    Режиссер: Сэм Рэйми
    Продюсер: Ави Арад, Лора Зискин, Джозеф М. Караччоло
    Актеры: Тоби Магуайр, Кирстен Данст, Джеймс Франко, Альфред Молина, Розмари Харрис, Дж.К. Симмонс, Донна Мерфи, Дэниэл Гиллис, Дилан Бейкер, Билл Нанн

    Описание

    Тихоня Питер Паркер балансирует на грани двух своих жизней: супергероя Человека-паука и обычного студента колледжа. Его отношения со всеми, кто ему дорог, в опасности или зашли в тупик. А жизнь приготовила ему новое испытание. Он должен использовать все свои суперспособности, чтобы одолеть жестокого безумца доктора Отто Октавиуса.

    Возраст: 12+ (зрителям, достигшим 12 лет)
    Рейтинг MPAA: PG-13 (детям до 13 лет просмотр нежелателен)
    Дата мировой премьеры: 25 июня 2004
    Дата российской премьеры: 30 июня 2004
    Продолжительность: 02: 07: 28
    Качество видео: HDRip
    Перевод: Дублированный (Лицензия)
    Субтитры: Русские (полные), Английские (полные)
    Видео: AVC/H.264, 1280x536, ~1433 Kbps
    Аудио: AAC, 2 ch, ~128 Kbps

    Общее
    Полное имя : E: Download2Человек-паук 2 2004 720p.mp4
    Формат : MPEG-4
    Профиль формата : Base Media
    Идентификатор кодека : isom (isom/avc1)
    Размер файла : 1, 39 Гбайт
    Продолжительность : 2 ч. 7 м.
    Режим общего битрейта : Переменный
    Общий поток : 1565 Кбит/сек
    Дата кодирования : UTC 2018-03-27 08: 33: 04
    Дата пометки : UTC 2018-03-27 08: 33: 04
    Видео
    Идентификатор : 1
    Формат : AVC
    Формат/Информация : Advanced Video Codec
    Профиль формата : High@L3.1
    Настройки формата : CABAC/1 Ref Frames
    Параметр CABAC формата : Да
    Параметр RefFrames формата : 1 кадр
    Идентификатор кодека : avc1
    Идентификатор кодека/Информация : Advanced Video Coding
    Продолжительность : 2 ч. 7 м.
    Битрейт : 1433 Кбит/сек
    Максимальный битрейт : 5201 Кбит/сек
    Ширина : 1280 пикселей
    Высота : 536 пикселей
    Соотношение сторон : 2, 40: 1
    Режим частоты кадров : Постоянный
    Частота кадров : 23, 976 (24000/1001) кадра/сек
    Цветовое пространство : YUV
    Субдискретизация насыщенности : 4: 2: 0
    Битовая глубина : 8 бит
    Тип развёртки : Прогрессивная
    Бит/(Пиксели*Кадры) : 0.087
    Размер потока : 1, 28 Гбайт (92%)
    Дата кодирования : UTC 2018-03-27 08: 33: 04
    Дата пометки : UTC 2018-03-27 08: 34: 45
    Цветовой диапазон : Limited
    Основные цвета : BT.709
    Характеристики трансфера : BT.709
    Коэффициенты матрицы : BT.709
    Аудио
    Идентификатор : 2
    Формат : AAC
    Формат/Информация : Advanced Audio Codec
    Профиль формата : LC
    Идентификатор кодека : mp4a-40-2
    Продолжительность : 2 ч. 7 м.
    Вид битрейта : Переменный
    Битрейт : 128 Кбит/сек
    Максимальный битрейт : 142 Кбит/сек
    Каналы : 2 канала
    Расположение каналов : Front: L R
    Частота : 48, 0 КГц
    Частота кадров : 46, 875 кадров/сек (1024 SPF)
    Метод сжатия : С потерями
    Размер потока : 117 Мбайт (8%)
    Заголовок : Дублированный (Лицензия)
    Язык : Russian
    Дата кодирования : UTC 2018-03-27 08: 34: 29
    Дата пометки : UTC 2018-03-27 08: 34: 45
    Текст #1
    Идентификатор : 3
    Формат : Timed Text
    Идентификатор кодека : tx3g
    Продолжительность : 2 ч. 1 м.
    Вид битрейта : Переменный
    Битрейт : 74 бит/сек
    Размер потока : 65, 9 Кбайт (0%)
    Заголовок : Full
    Язык : Russian
    Forced : Нет
    Дата кодирования : UTC 2018-03-27 08: 34: 45
    Дата пометки : UTC 2018-03-27 08: 34: 45
    Текст #2
    Идентификатор : 4
    Формат : Timed Text
    Идентификатор кодека : tx3g
    Продолжительность : 2 ч. 1 м.
    Вид битрейта : Переменный
    Битрейт : 42 бит/сек
    Размер потока : 37, 8 Кбайт (0%)
    Заголовок : Full
    Язык : English
    Forced : Нет
    Дата кодирования : UTC 2018-03-27 08: 34: 45
    Дата пометки : UTC 2018-03-27 08: 34: 45
    Скриншоты:


    Все одноименные релизы в Клубе
    Время раздачи: с 9: 00 до 21: 00 (до появления первых 3-5 скачавших)


    Человек-паук 2/Spider-Man 2 (2004) HDRip [H.264] [MP4|1280x536]
    Рейтинг →
     (голосов: 1, оценка 3/5, голосовать можно 1 раз )

    Другие торренты по теме:

  • Человек-Паук / Spider-Man (2002) BDRip [H.264 / 1080p] [hand made 60fps] скачать через торрент бесплатно
  • Человек-Паук / Spider-Man (2002) WEB-DL [H.264 / 2160p] скачать через торрент бесплатно
  • Человек-Паук / Spider-Man: The Animated Series (1994-1998) DVDRip [H.264] (Сезон 1-5, Серии 01-65 из 65)
  • Человек-паук / Spider-man (2002) BDRip [H.265 / 1080p-LQ]
  • Человек-Паук / Spider-Man: The Animated Series (1994-1998) BDRip [H.265 / 1080p-LQ] (Сезон 1-5, Серии 01-65 из 65)
  • Человек-паук / Spider-Man (2002) HDRip [H.264] [MP4|1280x694]
  • Человек-паук / Spider-Man (2002) HDRip [H.264] [MP4|1920x1040]
  • Новый Человек-паук: Высокое напряжение / The Amazing Spider-Man 2 (2014) BDRip [576p] iPad


    • Комментарии (0):

      Информация

      Информация

        Посетители, находящиеся в группе Гости, не могут оставлять комментарии в данной новости.

        ↓ Меню




        ↓ Опрос

        Вы добавили сайт в закладки?
        Да
        Нет


        Top 10 за месяц (КПК и мобильные)