.
Авторизация | Регистрация
Хочешь лучшие торренты? Добавь свой email!
Добавить

Торрент скачать бесплатно

» » Человек-паук / Spider-Man (2002) HDRip [H.264] [MP4|1920x1040] торрент скачать бесплатно


    Человек-паук / Spider-Man (2002) HDRip [H.264] [MP4|1920x1040] торрент скачать бесплатно

    Опубликовал: Админ | Дата: 29-03-2018, 05:00 | .torrent скачали: 0

    Человек-паук / Spider-Man (2002) HDRip [H.264] [MP4|1920x1040]Производство: США
    Жанр: Фантастика, Боевик, Приключения
    Режиссер: Сэм Рэйми
    Продюсер: Йен Брайс, Лора Зискин, Ави Арад
    Актеры: Тоби Магуайр, Уиллем Дефо, Кирстен Данст, Джеймс Франко, Клифф Робертсон, Розмари Харрис, Дж.К. Симмонс, Джо Манганьелло, Майкл Пападжон, Билл Нанн

    Описание

    Питер Паркер — обыкновенный школьник. Однажды он отправился с классом на экскурсию, где его кусает странный паук-мутант. Через время парень почувствовал в себе нечеловеческую силу и ловкость в движении, а главное — умение лазать по стенам и метать стальную паутину. Свои способности он направляет на защиту слабых. Так Питер становится настоящим супергероем по имени Человек-паук, который помогает людям и борется с преступностью. Но там, где есть супергерой, рано или поздно всегда объявляется и суперзлодей…

    Возраст: 12+ (зрителям, достигшим 12 лет)
    Рейтинг MPAA: PG-13 (детям до 13 лет просмотр нежелателен)
    Дата мировой премьеры: 30 апреля 2002
    Дата российской премьеры: 1 мая 2002
    Продолжительность: 02: 01: 12
    Качество видео: HDRip
    Перевод: Дублированный (Лицензия)
    Субтитры: Русские (полные), Английские (полные)
    Видео: AVC/H.264, 1920x1040, ~3049 Kbps
    Аудио: AC3, 6 ch, 384 Kbps

    Общее
    Полное имя : E: Download1Человек-паук 2002 1080p.mp4
    Формат : MPEG-4
    Профиль формата : Base Media
    Идентификатор кодека : isom (isom/avc1/iso6)
    Размер файла : 2, 91 Гбайт
    Продолжительность : 2 ч. 1 м.
    Режим общего битрейта : Переменный
    Общий поток : 3435 Кбит/сек
    Дата кодирования : UTC 2018-03-26 05: 52: 41
    Дата пометки : UTC 2018-03-26 05: 52: 41
    Видео
    Идентификатор : 1
    Формат : AVC
    Формат/Информация : Advanced Video Codec
    Профиль формата : High@L4
    Настройки формата : CABAC/2 Ref Frames
    Параметр CABAC формата : Да
    Параметр RefFrames формата : 2 кадра
    Идентификатор кодека : avc1
    Идентификатор кодека/Информация : Advanced Video Coding
    Продолжительность : 2 ч. 1 м.
    Битрейт : 3049 Кбит/сек
    Максимальный битрейт : 10, 0 Мбит/сек
    Ширина : 1920 пикселей
    Высота : 1040 пикселей
    Соотношение сторон : 1, 85: 1
    Режим частоты кадров : Постоянный
    Частота кадров : 23, 976 (24000/1001) кадра/сек
    Цветовое пространство : YUV
    Субдискретизация насыщенности : 4: 2: 0
    Битовая глубина : 8 бит
    Тип развёртки : Прогрессивная
    Бит/(Пиксели*Кадры) : 0.064
    Размер потока : 2, 58 Гбайт (89%)
    Дата кодирования : UTC 2018-03-26 05: 52: 41
    Дата пометки : UTC 2018-03-26 05: 54: 39
    Цветовой диапазон : Limited
    Основные цвета : BT.709
    Характеристики трансфера : BT.709
    Коэффициенты матрицы : BT.709
    Аудио
    Идентификатор : 2
    Формат : AC-3
    Формат/Информация : Audio Coding 3
    Параметр Endianness формата : Big
    Идентификатор кодека : ac-3
    Продолжительность : 2 ч. 1 м.
    Вид битрейта : Постоянный
    Битрейт : 384 Кбит/сек
    Максимальный битрейт : 406 Кбит/сек
    Каналы : 6 каналов
    Расположение каналов : Front: L C R, Side: L R, LFE
    Частота : 48, 0 КГц
    Частота кадров : 31, 250 кадров/сек (1536 SPF)
    Битовая глубина : 16 бит
    Метод сжатия : С потерями
    Размер потока : 333 Мбайт (11%)
    Заголовок : Дублированный (Лицензия)
    Язык : Russian
    ServiceKind/String : Complete Main
    Дата кодирования : UTC 2018-03-26 05: 54: 17
    Дата пометки : UTC 2018-03-26 05: 54: 39
    Текст #1
    Идентификатор : 3
    Формат : Timed Text
    Идентификатор кодека : tx3g
    Продолжительность : 1 ч. 55 м.
    Вид битрейта : Переменный
    Битрейт : 91 бит/сек
    Размер потока : 76, 8 Кбайт (0%)
    Заголовок : Full
    Язык : Russian
    Forced : Нет
    Дата кодирования : UTC 2018-03-26 05: 54: 38
    Дата пометки : UTC 2018-03-26 05: 54: 39
    Текст #2
    Идентификатор : 4
    Формат : Timed Text
    Идентификатор кодека : tx3g
    Продолжительность : 1 ч. 55 м.
    Вид битрейта : Переменный
    Битрейт : 57 бит/сек
    Размер потока : 48, 4 Кбайт (0%)
    Заголовок : Full
    Язык : English
    Forced : Нет
    Дата кодирования : UTC 2018-03-26 05: 54: 39
    Дата пометки : UTC 2018-03-26 05: 54: 39
    Скриншоты:


    Все одноименные релизы в Клубе
    Время раздачи: с 9: 00 до 21: 00 (до появления первых 3-5 скачавших)


    Человек-паук/Spider-Man (2002) HDRip [H.264] [MP4|1920x1040]
    Рейтинг →
     (голосов: 1, оценка 3/5, голосовать можно 1 раз )

    Другие торренты по теме:

  • Человек-Паук / Spider-Man (2002) BDRip [H.264 / 1080p] [hand made 60fps] скачать через торрент бесплатно
  • Человек-Паук / Spider-Man (2002) WEB-DL [H.264 / 2160p] скачать через торрент бесплатно
  • Человек-Паук / Spider-Man: The Animated Series (1994-1998) DVDRip [H.264] (Сезон 1-5, Серии 01-65 из 65)
  • Человек-паук / Spider-man (2002) BDRip [H.265 / 1080p-LQ]
  • Человек-Паук / Spider-Man: The Animated Series (1994-1998) BDRip [H.265 / 1080p-LQ] (Сезон 1-5, Серии 01-65 из 65)
  • Человек-паук / Spider-Man (2002) HDRip [H.264] [MP4|1280x694]
  • Новый Человек-паук: Высокое напряжение / The Amazing Spider-Man 2 (2014) BDRip [576p] iPad
  • Новый Человек-паук: Высокое напряжение / The Amazing Spider-Man 2: Rise of Electro (2014) BDRemux [1080p]


    • Комментарии (0):

      Информация

      Информация

        Посетители, находящиеся в группе Гости, не могут оставлять комментарии в данной новости.

        ↓ Меню




        ↓ Опрос

        Вы добавили сайт в закладки?
        Да
        Нет


        Top 10 за месяц (КПК и мобильные)