.
Авторизация | Регистрация
Хочешь лучшие торренты? Добавь свой email!
Добавить

Торрент скачать бесплатно

  • support: webmaster@btracker.org
» » Человек-паук / Spider-Man (2002) HDRip [H.264] [MP4|1280x694] торрент скачать бесплатно


    Человек-паук / Spider-Man (2002) HDRip [H.264] [MP4|1280x694] торрент скачать бесплатно

    Опубликовал: Админ | Дата: 29-03-2018, 05:00 | .torrent скачали: 0

    Человек-паук / Spider-Man (2002) HDRip [H.264] [MP4|1280x694]Производство: США
    Жанр: Фантастика, Боевик, Приключения
    Режиссер: Сэм Рэйми
    Продюсер: Йен Брайс, Лора Зискин, Ави Арад
    Актеры: Тоби Магуайр, Уиллем Дефо, Кирстен Данст, Джеймс Франко, Клифф Робертсон, Розмари Харрис, Дж.К. Симмонс, Джо Манганьелло, Майкл Пападжон, Билл Нанн

    Описание

    Питер Паркер — обыкновенный школьник. Однажды он отправился с классом на экскурсию, где его кусает странный паук-мутант. Через время парень почувствовал в себе нечеловеческую силу и ловкость в движении, а главное — умение лазать по стенам и метать стальную паутину. Свои способности он направляет на защиту слабых. Так Питер становится настоящим супергероем по имени Человек-паук, который помогает людям и борется с преступностью. Но там, где есть супергерой, рано или поздно всегда объявляется и суперзлодей…

    Возраст: 12+ (зрителям, достигшим 12 лет)
    Рейтинг MPAA: PG-13 (детям до 13 лет просмотр нежелателен)
    Дата мировой премьеры: 30 апреля 2002
    Дата российской премьеры: 1 мая 2002
    Продолжительность: 02: 01: 12
    Качество видео: HDRip
    Перевод: Дублированный (Лицензия)
    Субтитры: Русские (полные), Английские (полные)
    Видео: AVC/H.264, 1280x694, ~1679 Kbps
    Аудио: AAC, 2 ch, ~128 Kbps

    Общее
    Полное имя : E: Download1Человек-паук 2002 720p.mp4
    Формат : MPEG-4
    Профиль формата : Base Media
    Идентификатор кодека : isom (isom/avc1)
    Размер файла : 1, 53 Гбайт
    Продолжительность : 2 ч. 1 м.
    Режим общего битрейта : Переменный
    Общий поток : 1810 Кбит/сек
    Дата кодирования : UTC 2018-03-25 16: 10: 07
    Дата пометки : UTC 2018-03-25 16: 10: 07
    Видео
    Идентификатор : 1
    Формат : AVC
    Формат/Информация : Advanced Video Codec
    Профиль формата : High@L3.1
    Настройки формата : CABAC/1 Ref Frames
    Параметр CABAC формата : Да
    Параметр RefFrames формата : 1 кадр
    Параметр GOP формата : M=1, N=60
    Идентификатор кодека : avc1
    Идентификатор кодека/Информация : Advanced Video Coding
    Продолжительность : 2 ч. 1 м.
    Битрейт : 1679 Кбит/сек
    Максимальный битрейт : 8854 Кбит/сек
    Ширина : 1280 пикселей
    Высота : 694 пикселя
    Соотношение сторон : 1, 85: 1
    Режим частоты кадров : Постоянный
    Частота кадров : 23, 976 (24000/1001) кадра/сек
    Цветовое пространство : YUV
    Субдискретизация насыщенности : 4: 2: 0
    Битовая глубина : 8 бит
    Тип развёртки : Прогрессивная
    Бит/(Пиксели*Кадры) : 0.079
    Размер потока : 1, 42 Гбайт (93%)
    Дата кодирования : UTC 2018-03-25 16: 10: 07
    Дата пометки : UTC 2018-03-25 16: 12: 06
    Цветовой диапазон : Limited
    Основные цвета : BT.709
    Характеристики трансфера : BT.709
    Коэффициенты матрицы : BT.709
    Аудио
    Идентификатор : 2
    Формат : AAC
    Формат/Информация : Advanced Audio Codec
    Профиль формата : LC
    Идентификатор кодека : mp4a-40-2
    Продолжительность : 2 ч. 1 м.
    Вид битрейта : Переменный
    Битрейт : 128 Кбит/сек
    Максимальный битрейт : 138 Кбит/сек
    Каналы : 2 канала
    Расположение каналов : Front: L R
    Частота : 48, 0 КГц
    Частота кадров : 46, 875 кадров/сек (1024 SPF)
    Метод сжатия : С потерями
    Размер потока : 111 Мбайт (7%)
    Заголовок : Дублированный (Лицензия)
    Язык : Russian
    Дата кодирования : UTC 2018-03-25 16: 11: 53
    Дата пометки : UTC 2018-03-25 16: 12: 06
    Текст #1
    Идентификатор : 3
    Формат : Timed Text
    Идентификатор кодека : tx3g
    Продолжительность : 1 ч. 55 м.
    Вид битрейта : Переменный
    Битрейт : 91 бит/сек
    Размер потока : 76, 8 Кбайт (0%)
    Заголовок : Full
    Язык : Russian
    Forced : Нет
    Дата кодирования : UTC 2018-03-25 16: 12: 05
    Дата пометки : UTC 2018-03-25 16: 12: 06
    Текст #2
    Идентификатор : 4
    Формат : Timed Text
    Идентификатор кодека : tx3g
    Продолжительность : 1 ч. 55 м.
    Вид битрейта : Переменный
    Битрейт : 57 бит/сек
    Размер потока : 48, 4 Кбайт (0%)
    Заголовок : Full
    Язык : English
    Forced : Нет
    Дата кодирования : UTC 2018-03-25 16: 12: 06
    Дата пометки : UTC 2018-03-25 16: 12: 06
    Скриншоты:


    Все одноименные релизы в Клубе
    Время раздачи: с 9: 00 до 21: 00 (до появления первых 3-5 скачавших)


    Человек-паук/Spider-Man (2002) HDRip [H.264] [MP4|1280x694]
    Рейтинг →
     (голосов: 1, оценка 3/5, голосовать можно 1 раз )

    Другие торренты по теме:

  • Человек-Паук / Spider-Man (2002) BDRip [H.264 / 1080p] [hand made 60fps] скачать через торрент бесплатно
  • Человек-Паук / Spider-Man (2002) WEB-DL [H.264 / 2160p] скачать через торрент бесплатно
  • Человек-Паук / Spider-Man: The Animated Series (1994-1998) DVDRip [H.264] (Сезон 1-5, Серии 01-65 из 65)
  • Человек-паук / Spider-man (2002) BDRip [H.265 / 1080p-LQ]
  • Человек-Паук / Spider-Man: The Animated Series (1994-1998) BDRip [H.265 / 1080p-LQ] (Сезон 1-5, Серии 01-65 из 65)
  • Человек-паук / Spider-Man (2002) HDRip [H.264] [MP4|1920x1040]
  • Человек-паук / Spider-Man (1994) DVDRip (Сезоны 1-5, серии 1-2 из 65) [Обновляемая]
  • Человек-Паук / Spider-Man (1994-1998) DVDRemux (сезоны 1-5 из 5, серии 01-65 из 65)


    • Комментарии (0):

      Информация

      Информация

        Посетители, находящиеся в группе Гости, не могут оставлять комментарии в данной новости.

        ↓ Меню




        ↓ Опрос

        Вы добавили сайт в закладки?
        Да
        Нет


        Top 10 за месяц (КПК и мобильные)