.
Авторизация | Регистрация
Хочешь лучшие торренты? Добавь свой email!
Добавить

Торрент скачать бесплатно

» » Плохие парни 2 / Bad Boys II (2003) HDRip [H.264] [MP4|1280x536] торрент скачать бесплатно


    Плохие парни 2 / Bad Boys II (2003) HDRip [H.264] [MP4|1280x536] торрент скачать бесплатно

    Опубликовал: Админ | Дата: 28-03-2018, 05:00 | .torrent скачали: 0

    Плохие парни 2 / Bad Boys II (2003) HDRip [H.264] [MP4|1280x536]Производство: США
    Жанр: Боевик, Триллер, Драма, Комедия
    Режиссер: Майкл Бэй
    Продюсер: Джерри Брукхаймер, Мэттью Кохан, Дон Феррароне
    Актеры: Уилл Смит, Мартин Лоуренс, Гэбриэл Юнион, Хорди Молья, Петер Стормаре, Тереза Рэндл, Джо Пантольяно, Майкл Шеннон, Джон Седа, Юл Васкес

    Описание

    Детективы Майк Лоури и Маркус Бэрнетт получают задание расследовать схему доставки нового наркотика в Майами. Но про эти амбициозные планы узнают и остальные игроки нелегального рынка, в результате чего вспыхивает настоящая война. А ситуация начинает совсем выходить из-под контроля, когда Майк не на шутку увлекается сестрой Маркуса, Сидни.

    Возраст: 18+ (зрителям, достигшим 18 лет. запрещено для детей)
    Рейтинг MPAA: R (лицам до 17 лет обязательно присутствие взрослого)
    Дата мировой премьеры: 9 июля 2003
    Дата российской премьеры: 15 октября 2003
    Продолжительность: 02: 26: 44
    Качество видео: HDRip
    Перевод: Дублированный (Лицензия)
    Субтитры: Русские (полные), Английские (полные)
    Видео: AVC/H.264, 1280x536, ~1865 Kbps
    Аудио: AAC, 2 ch, ~129 Kbps

    Общее
    Полное имя : E: Download1Плохие парни 2 2003 720p.mp4
    Формат : MPEG-4
    Профиль формата : Base Media
    Идентификатор кодека : isom (isom/avc1)
    Размер файла : 2, 05 Гбайт
    Продолжительность : 2 ч. 26 м.
    Режим общего битрейта : Переменный
    Общий поток : 1997 Кбит/сек
    Дата кодирования : UTC 2018-03-14 07: 58: 58
    Дата пометки : UTC 2018-03-14 07: 58: 58
    Видео
    Идентификатор : 1
    Формат : AVC
    Формат/Информация : Advanced Video Codec
    Профиль формата : High@L3.1
    Настройки формата : CABAC/1 Ref Frames
    Параметр CABAC формата : Да
    Параметр RefFrames формата : 1 кадр
    Параметр GOP формата : M=1, N=60
    Идентификатор кодека : avc1
    Идентификатор кодека/Информация : Advanced Video Coding
    Продолжительность : 2 ч. 26 м.
    Битрейт : 1865 Кбит/сек
    Максимальный битрейт : 8855 Кбит/сек
    Ширина : 1280 пикселей
    Высота : 536 пикселей
    Соотношение сторон : 2, 40: 1
    Режим частоты кадров : Постоянный
    Частота кадров : 23, 976 (24000/1001) кадра/сек
    Цветовое пространство : YUV
    Субдискретизация насыщенности : 4: 2: 0
    Битовая глубина : 8 бит
    Тип развёртки : Прогрессивная
    Бит/(Пиксели*Кадры) : 0.113
    Размер потока : 1, 91 Гбайт (93%)
    Дата кодирования : UTC 2018-03-14 07: 58: 58
    Дата пометки : UTC 2018-03-14 08: 00: 37
    Цветовой диапазон : Limited
    Основные цвета : BT.709
    Характеристики трансфера : BT.709
    Коэффициенты матрицы : BT.709
    Аудио
    Идентификатор : 2
    Формат : AAC
    Формат/Информация : Advanced Audio Codec
    Профиль формата : LC
    Идентификатор кодека : mp4a-40-2
    Продолжительность : 2 ч. 26 м.
    Вид битрейта : Переменный
    Битрейт : 129 Кбит/сек
    Максимальный битрейт : 134 Кбит/сек
    Каналы : 2 канала
    Расположение каналов : Front: L R
    Частота : 48, 0 КГц
    Частота кадров : 46, 875 кадров/сек (1024 SPF)
    Метод сжатия : С потерями
    Размер потока : 135 Мбайт (6%)
    Заголовок : Дублированный (Лицензия)
    Язык : Russian
    Дата кодирования : UTC 2018-03-14 08: 00: 19
    Дата пометки : UTC 2018-03-14 08: 00: 37
    Текст #1
    Идентификатор : 3
    Формат : Timed Text
    Идентификатор кодека : tx3g
    Продолжительность : 2 ч. 21 м.
    Вид битрейта : Переменный
    Битрейт : 114 бит/сек
    Размер потока : 118 Кбайт (0%)
    Заголовок : Full
    Язык : Russian
    Forced : Нет
    Дата кодирования : UTC 2018-03-14 08: 00: 37
    Дата пометки : UTC 2018-03-14 08: 00: 37
    Текст #2
    Идентификатор : 4
    Формат : Timed Text
    Идентификатор кодека : tx3g
    Продолжительность : 2 ч. 21 м.
    Вид битрейта : Переменный
    Битрейт : 75 бит/сек
    Размер потока : 77, 5 Кбайт (0%)
    Заголовок : Full
    Язык : English
    Forced : Нет
    Дата кодирования : UTC 2018-03-14 08: 00: 37
    Дата пометки : UTC 2018-03-14 08: 00: 37
    Скриншоты:


    Все одноименные релизы в Клубе
    Время раздачи: с 9: 00 до 21: 00 (до появления первых 3-5 скачавших)


    Плохие парни 2/Bad Boys II (2003) HDRip [H.264] [MP4|1280x536]
    Рейтинг →
     (голосов: 1, оценка 4/5, голосовать можно 1 раз )

    Другие торренты по теме:

  • Плохие парни / Bad Boys (1995) BDRip [h.264]
  • Плохие парни 2 / Bad Boys II (2003) WEB-DLRip [h.264]
  • Плохие парни 2 / Bad Boys II (2003) BDRip [H.264 / 1080р] скачать через торрент бесплатно
  • Плохие парни 2 / Bad Boys II (2003) BDRemux [H.264 / 1080р] скачать через торрент бесплатно
  • Плохие парни 2 / Bad Boys II (2003) BDRip [H.264 / 720р] скачать через торрент бесплатно
  • Плохие парни / Bad Boys (1995-2003) BDRemux [H.264 / 1080p] [4K Remastered] [Дилогия] скачать через торрент бесплатно
  • Плохие парни / Bad Boys (1995) BDRip [H.264] [Remastered] скачать через торрент бесплатно
  • Плохие парни 2 / Bad Boys II (2003) BDRip [H.264] [Remastered] скачать через торрент бесплатно


    • Комментарии (0):

      Информация

      Информация

        Посетители, находящиеся в группе Гости, не могут оставлять комментарии в данной новости.

        ↓ Меню




        ↓ Опрос

        Вы добавили сайт в закладки?
        Да
        Нет


        Top 10 за месяц (КПК и мобильные)