.
Авторизация | Регистрация
Хочешь лучшие торренты? Добавь свой email!
Добавить

Торрент скачать бесплатно

» » Плохие парни / Bad Boys (1995) HDRip [H.264] [MP4|1280x692] торрент скачать бесплатно


    Плохие парни / Bad Boys (1995) HDRip [H.264] [MP4|1280x692] торрент скачать бесплатно

    Опубликовал: Админ | Дата: 27-03-2018, 05:00 | .torrent скачали: 0

    Плохие парни / Bad Boys (1995) HDRip [H.264] [MP4|1280x692]Производство: США
    Жанр: Боевик, Триллер, Драма, Комедия
    Режиссер: Майкл Бэй
    Продюсер: Джерри Брукхаймер, Дон Симпсон, Лукас Фостер
    Актеры: Уилл Смит, Мартин Лоуренс, Теа Леони, Лиза Бойл, Майкл Талиферро, Эммануель Ксереб, Чеки Карио, Марк Маколей, Ральф Гонсалес, Вик Манни, Фрэнк Джон Хьюз, Майк Киртон, Уилл Никербоксер, Тереза Рэндл, Тиффани Сэмюэлс, Кори Ходжес, Скотт Камбербэтч, Анна Левайн-Томпсон, Джои Романо, Сэм Эйерс, Джо Пантолиано

    Описание

    Они — полная противоположность друг друга. Один из них — примерный семьянин и не имеет состояния, другой богат и пользуется всеми благами холостяцкой жизни. Помимо дружбы их объединяет работа в полиции.
    Их новое задание — поймать жестокого преступника, укравшего наркотики с секретного склада, а также спасти девушку, которая случайно оказалась на его пути. Но для этого друзьям придется поменяться местами…

    Возраст: 16+ (зрителям, достигшим 16 лет)
    Рейтинг MPAA: R (лицам до 17 лет обязательно присутствие взрослого)
    Дата мировой премьеры: 7 апреля 1995
    Продолжительность: 01: 58: 50
    Качество видео: HDRip
    Перевод: Дублированный (Лицензия)
    Субтитры: Русские (полные), Английские (полные)
    Видео: AVC/H.264, 1280x692, ~1450 Kbps
    Аудио: AAC, 2 ch, ~129 Kbps

    Общее
    Полное имя : E: Download1Плохие парни 1995 720p.mp4
    Формат : MPEG-4
    Профиль формата : Base Media
    Идентификатор кодека : isom (isom/avc1)
    Размер файла : 1, 31 Гбайт
    Продолжительность : 1 ч. 58 м.
    Режим общего битрейта : Переменный
    Общий поток : 1582 Кбит/сек
    Дата кодирования : UTC 2018-03-08 16: 05: 01
    Дата пометки : UTC 2018-03-08 16: 05: 01
    Видео
    Идентификатор : 1
    Формат : AVC
    Формат/Информация : Advanced Video Codec
    Профиль формата : High@L3.1
    Настройки формата : CABAC/1 Ref Frames
    Параметр CABAC формата : Да
    Параметр RefFrames формата : 1 кадр
    Параметр GOP формата : M=1, N=60
    Идентификатор кодека : avc1
    Идентификатор кодека/Информация : Advanced Video Coding
    Продолжительность : 1 ч. 58 м.
    Битрейт : 1450 Кбит/сек
    Максимальный битрейт : 8284 Кбит/сек
    Ширина : 1280 пикселей
    Высота : 692 пикселя
    Соотношение сторон : 1, 85: 1
    Режим частоты кадров : Постоянный
    Частота кадров : 23, 976 (24000/1001) кадра/сек
    Цветовое пространство : YUV
    Субдискретизация насыщенности : 4: 2: 0
    Битовая глубина : 8 бит
    Тип развёртки : Прогрессивная
    Бит/(Пиксели*Кадры) : 0.068
    Размер потока : 1, 20 Гбайт (92%)
    Дата кодирования : UTC 2018-03-08 16: 05: 01
    Дата пометки : UTC 2018-03-08 16: 06: 33
    Цветовой диапазон : Limited
    Основные цвета : BT.709
    Характеристики трансфера : BT.709
    Коэффициенты матрицы : BT.709
    Аудио
    Идентификатор : 2
    Формат : AAC
    Формат/Информация : Advanced Audio Codec
    Профиль формата : LC
    Идентификатор кодека : mp4a-40-2
    Продолжительность : 1 ч. 58 м.
    Вид битрейта : Переменный
    Битрейт : 129 Кбит/сек
    Максимальный битрейт : 134 Кбит/сек
    Каналы : 2 канала
    Расположение каналов : Front: L R
    Частота : 48, 0 КГц
    Частота кадров : 46, 875 кадров/сек (1024 SPF)
    Метод сжатия : С потерями
    Размер потока : 109 Мбайт (8%)
    Заголовок : Дублированный (Лицензия)
    Язык : Russian
    Дата кодирования : UTC 2018-03-08 16: 06: 20
    Дата пометки : UTC 2018-03-08 16: 06: 33
    Текст #1
    Идентификатор : 3
    Формат : Timed Text
    Идентификатор кодека : tx3g
    Продолжительность : 1 ч. 54 м.
    Вид битрейта : Переменный
    Битрейт : 103 бит/сек
    Размер потока : 86, 4 Кбайт (0%)
    Заголовок : Full
    Язык : Russian
    Forced : Нет
    Дата кодирования : UTC 2018-03-08 16: 06: 33
    Дата пометки : UTC 2018-03-08 16: 06: 33
    Текст #2
    Идентификатор : 4
    Формат : Timed Text
    Идентификатор кодека : tx3g
    Продолжительность : 1 ч. 55 м.
    Вид битрейта : Переменный
    Битрейт : 73 бит/сек
    Размер потока : 61, 6 Кбайт (0%)
    Заголовок : Full
    Язык : English
    Forced : Нет
    Дата кодирования : UTC 2018-03-08 16: 06: 33
    Дата пометки : UTC 2018-03-08 16: 06: 33
    Скриншоты:


    Все одноименные релизы в Клубе
    Время раздачи: с 9: 00 до 21: 00 (до появления первых 3-5 скачавших)


    Плохие парни/Bad Boys (1995) HDRip [H.264] [MP4|1280x692]
    Рейтинг →
     (голосов: 1, оценка 5/5, голосовать можно 1 раз )

    Другие торренты по теме:

  • Плохие парни / Bad Boys (1995) BDRip [h.264]
  • Плохие парни 2 / Bad Boys II (2003) WEB-DLRip [h.264]
  • Плохие парни 2 / Bad Boys II (2003) BDRip [H.264 / 1080р] скачать через торрент бесплатно
  • Плохие парни 2 / Bad Boys II (2003) BDRemux [H.264 / 1080р] скачать через торрент бесплатно
  • Плохие парни 2 / Bad Boys II (2003) BDRip [H.264 / 720р] скачать через торрент бесплатно
  • Плохие парни / Bad Boys (1995-2003) BDRemux [H.264 / 1080p] [4K Remastered] [Дилогия] скачать через торрент бесплатно
  • Плохие парни / Bad Boys (1995) BDRip [H.264] [Remastered] скачать через торрент бесплатно
  • Плохие парни 2 / Bad Boys II (2003) BDRip [H.264] [Remastered] скачать через торрент бесплатно


    • Комментарии (0):

      Информация

      Информация

        Посетители, находящиеся в группе Гости, не могут оставлять комментарии в данной новости.

        ↓ Меню




        ↓ Опрос

        Вы добавили сайт в закладки?
        Да
        Нет


        Top 10 за месяц (КПК и мобильные)