.
Авторизация | Регистрация
Хочешь лучшие торренты? Добавь свой email!
Добавить

Торрент скачать бесплатно

» » Криминальное чтиво / Pulp Fiction (1994) HDRip [H.264] [MP4|1280x544] торрент скачать бесплатно


    Криминальное чтиво / Pulp Fiction (1994) HDRip [H.264] [MP4|1280x544] торрент скачать бесплатно

    Опубликовал: Админ | Дата: 26-03-2018, 05:00 | .torrent скачали: 1

    Криминальное чтиво / Pulp Fiction (1994) HDRip [H.264] [MP4|1280x544]Производство: США
    Жанр: Триллер, Комедия, Криминал
    Режиссер: Квентин Тарантино
    Продюсер: Лоуренс Бендер, Дэнни ДеВито, Ричард Н. Гладштейн
    Актеры: Джон Траволта, Сэмюэл Л. Джексон, Брюс Уиллис, Ума Турман, Винг Реймз, Тим Рот, Харви Кейтель, Квентин Тарантино, Питер Грин, Аманда Пламмер

    Описание

    Двое бандитов Винсент Вега и Джулс Винфилд проводят время в философских беседах в перерыве между разборками и решением проблем с должниками своего криминального босса Марселласа Уоллеса. Параллельно разворачиваются три истории.
    В первой из них Винсент присматривает за женой Марселласа Мией и спасает ее от передозировки наркотиков. Во второй рассказывается о Бутче Кулидже, боксере, нанятом Уоллесом, чтобы сдать бой, но обманувшим его. Третья история объединяет первые две — в кафе парочка молодых неудачливых грабителей — Пампкин и Хани Бани делают попытку ограбления, но Джулс останавливает их.

    Возраст: 18+ (зрителям, достигшим 18 лет. запрещено для детей)
    Рейтинг MPAA: R (лицам до 17 лет обязательно присутствие взрослого)
    Дата мировой премьеры: 21 мая 1994
    Дата российской премьеры: 29 сентября 1995
    Продолжительность: 02: 34: 19
    Качество видео: HDRip
    Перевод: Дублированный (Miramax)
    Субтитры: Русские (форсированные, полные), Английские (полные)
    Видео: AVC/H.264, 1280x544, ~1165 Kbps
    Аудио: AAC, 2 ch, ~129 Kbps

    Общее
    Полное имя : E: Download1Криминальное чтиво 1994 720p.mp4
    Формат : MPEG-4
    Профиль формата : Base Media
    Идентификатор кодека : isom (isom/avc1)
    Размер файла : 1, 38 Гбайт
    Продолжительность : 2 ч. 34 м.
    Режим общего битрейта : Переменный
    Общий поток : 1284 Кбит/сек
    Дата кодирования : UTC 2018-03-14 14: 08: 27
    Дата пометки : UTC 2018-03-14 14: 08: 27
    Видео
    Идентификатор : 1
    Формат : AVC
    Формат/Информация : Advanced Video Codec
    Профиль формата : High@L3.1
    Настройки формата : CABAC/1 Ref Frames
    Параметр CABAC формата : Да
    Параметр RefFrames формата : 1 кадр
    Идентификатор кодека : avc1
    Идентификатор кодека/Информация : Advanced Video Coding
    Продолжительность : 2 ч. 32 м.
    Битрейт : 1165 Кбит/сек
    Максимальный битрейт : 5795 Кбит/сек
    Ширина : 1280 пикселей
    Высота : 544 пикселя
    Соотношение сторон : 2, 35: 1
    Режим частоты кадров : Постоянный
    Частота кадров : 23, 976 (24000/1001) кадра/сек
    Цветовое пространство : YUV
    Субдискретизация насыщенности : 4: 2: 0
    Битовая глубина : 8 бит
    Тип развёртки : Прогрессивная
    Бит/(Пиксели*Кадры) : 0.070
    Размер потока : 1, 24 Гбайт (90%)
    Дата кодирования : UTC 2018-03-14 14: 08: 27
    Дата пометки : UTC 2018-03-14 14: 10: 04
    Цветовой диапазон : Limited
    Основные цвета : BT.709
    Характеристики трансфера : BT.709
    Коэффициенты матрицы : BT.709
    Аудио
    Идентификатор : 2
    Формат : AAC
    Формат/Информация : Advanced Audio Codec
    Профиль формата : LC
    Идентификатор кодека : mp4a-40-2
    Продолжительность : 2 ч. 34 м.
    Вид битрейта : Переменный
    Битрейт : 129 Кбит/сек
    Максимальный битрейт : 134 Кбит/сек
    Каналы : 2 канала
    Расположение каналов : Front: L R
    Частота : 48, 0 КГц
    Частота кадров : 46, 875 кадров/сек (1024 SPF)
    Метод сжатия : С потерями
    Размер потока : 142 Мбайт (10%)
    Заголовок : Дублированный (Miramax)
    Язык : Russian
    Дата кодирования : UTC 2018-03-14 14: 09: 38
    Дата пометки : UTC 2018-03-14 14: 10: 04
    Текст #1
    Идентификатор : 3
    Формат : Timed Text
    Идентификатор кодека : tx3g
    Продолжительность : 2 ч. 34 м.
    Вид битрейта : Переменный
    Битрейт : 1 бит/сек
    Размер потока : 797 байт (0%)
    Заголовок : Forced
    Язык : Russian
    Forced : Нет
    Дата кодирования : UTC 2018-03-14 14: 10: 04
    Дата пометки : UTC 2018-03-14 14: 10: 04
    Текст #2
    Идентификатор : 4
    Формат : Timed Text
    Идентификатор кодека : tx3g
    Продолжительность : 2 ч. 34 м.
    Вид битрейта : Переменный
    Битрейт : 99 бит/сек
    Размер потока : 112 Кбайт (0%)
    Заголовок : Full
    Язык : Russian
    Forced : Нет
    Дата кодирования : UTC 2018-03-14 14: 10: 04
    Дата пометки : UTC 2018-03-14 14: 10: 04
    Текст #3
    Идентификатор : 5
    Формат : Timed Text
    Идентификатор кодека : tx3g
    Продолжительность : 2 ч. 29 м.
    Вид битрейта : Переменный
    Битрейт : 77 бит/сек
    Размер потока : 84, 2 Кбайт (0%)
    Заголовок : Full
    Язык : English
    Forced : Нет
    Дата кодирования : UTC 2018-03-14 14: 10: 04
    Дата пометки : UTC 2018-03-14 14: 10: 04
    Скриншоты:


    Все одноименные релизы в Клубе
    Время раздачи: с 9: 00 до 21: 00 (до появления первых 3-5 скачавших)


    Криминальное чтиво/Pulp Fiction (1994) HDRip [H.264] [MP4|1280x544]
    Рейтинг →
     (голосов: 1, оценка 3/5, голосовать можно 1 раз )

    Другие торренты по теме:

  • Криминальное чтиво / Pulp Fiction (1994) BDRip [H.264]
  • Криминальное чтиво / Pulp Fiction (1994) BDRip [1080p]
  • Газета | Попутчик-Криминальное чтиво №1 (2016) [PDF] скачать через торрент бесплатно
  • Газета | Попутчик-Криминальное чтиво №2 (2016) [PDF]
  • Газета | Попутчик-Криминальное чтиво №3 (2016) [PDF]
  • Криминальное чтиво / Pulp Fiction (1994) BDRip [H.265 / 1080p]
  • Газета | Попутчик-Криминальное чтиво №4 (2016) [PDF]
  • Газета | Попутчик-Криминальное чтиво №5 (2016) [PDF]


    • Комментарии (0):

      Информация

      Информация

        Посетители, находящиеся в группе Гости, не могут оставлять комментарии в данной новости.

        ↓ Меню




        ↓ Опрос

        Вы добавили сайт в закладки?
        Да
        Нет


        Top 10 за месяц (КПК и мобильные)