.
Авторизация | Регистрация
Хочешь лучшие торренты? Добавь свой email!
Добавить

Торрент скачать бесплатно

» » Белорусский вокзал (1971) WEB-DL [H.264] [MP4|1920x816] торрент скачать бесплатно


    Белорусский вокзал (1971) WEB-DL [H.264] [MP4|1920x816] торрент скачать бесплатно

    Опубликовал: Админ | Дата: 25-03-2018, 05:00 | .torrent скачали: 1

    Белорусский вокзал (1971) WEB-DL [H.264] [MP4|1920x816]Производство: СССР
    Жанр: Драма
    Режиссер: Андрей Смирнов
    Актеры: Евгений Леонов, Анатолий Папанов, Алексей Глазырин, Всеволод Сафонов, Нина Ургант, Николай Волков мл., Любовь Соколова, Маргарита Терехова, Раиса Куркина, Юрий Визбор

    Описание

    Герои фильма расстались на Белорусском вокзале летом 1945-го. Спустя четверть века они встречаются на похоронах боевого товарища. В их душах с новой силой оживает пережитое. Время не властно над их памятью: ветераны сохранили верность фронтовой дружбе, способность жертвовать собой, неистребимую любовь к жизни.

    Возраст: 12+ (зрителям, достигшим 12 лет)
    Релиз от: Алехаndr
    Продолжительность: 01: 36: 18
    Качество видео: WEB-DL
    Субтитры: отсутствуют
    Видео: AVC/H.264, 1920x816, ~4690 Kbps
    Аудио: AAC, 2 ch, 128 Kbps

    Общее
    Полное имя : G: Белорусский вокзал (1971).by.Алехаndr.mp4
    Формат : MPEG-4
    Профиль формата : Base Media
    Идентификатор кодека : isom (isom/iso2/avc1/mp41)
    Размер файла : 3, 25 Гбайт
    Продолжительность : 1 ч. 36 м.
    Режим общего битрейта : Переменный
    Общий поток : 4825 Кбит/сек
    Программа кодирования : Lavf57.71.100
    Видео
    Идентификатор : 1
    Формат : AVC
    Формат/Информация : Advanced Video Codec
    Профиль формата : Main@L4
    Настройки формата : CABAC/2 Ref Frames
    Параметр CABAC формата : Да
    Параметр RefFrames формата : 2 кадра
    Параметр GOP формата : M=1, N=25
    Идентификатор кодека : avc1
    Идентификатор кодека/Информация : Advanced Video Coding
    Продолжительность : 1 ч. 36 м.
    Битрейт : 4691 Кбит/сек
    Ширина : 1920 пикселей
    Высота : 816 пикселей
    Соотношение сторон : 2, 35: 1
    Режим частоты кадров : Переменный
    Частота кадров : 25, 000 кадров/сек
    Минимальная частота кадров : 12, 500 кадров/сек
    Максимальная частота кадров : 25, 001 кадров/сек
    Цветовое пространство : YUV
    Субдискретизация насыщенности : 4: 2: 0
    Битовая глубина : 8 бит
    Тип развёртки : Прогрессивная
    Бит/(Пиксели*Кадры) : 0.120
    Размер потока : 3, 16 Гбайт (97%)
    Аудио
    Идентификатор : 2
    Формат : AAC
    Формат/Информация : Advanced Audio Codec
    Профиль формата : LC
    Идентификатор кодека : mp4a-40-2
    Продолжительность : 1 ч. 36 м.
    Вид битрейта : Переменный
    Битрейт : 128 Кбит/сек
    Каналы : 2 канала
    Расположение каналов : Front: L R
    Частота : 48, 0 КГц
    Частота кадров : 46, 875 кадров/сек (1024 SPF)
    Метод сжатия : С потерями
    Размер потока : 87, 5 Мбайт (3%)
    Язык : Russian
    Default : Да
    AlternateGroup/String : 1
    Скриншоты:


    Все одноименные релизы в Клубе
    Время раздачи: 24/7 (круглосуточно) (до появления первых 3-5 скачавших)


    Белорусский вокзал (1971) WEB-DL [H.264] [MP4|1920x816]
    Рейтинг →
     (голосов: 1, оценка 3/5, голосовать можно 1 раз )

    Другие торренты по теме:

  • Белорусский вокзал (1971) BDRip [H.264 / 720p] скачать через торрент бесплатно
  • Белорусский вокзал (1971) BDRip [H.264] скачать через торрент бесплатно
  • Белорусский вокзал (1971) BDRip [H.264 / 1080p-LQ] скачать через торрент бесплатно
  • Белорусский вокзал (1971) BDRip [H.264 / 1080p]


    • Комментарии (0):

      Информация

      Информация

        Посетители, находящиеся в группе Гости, не могут оставлять комментарии в данной новости.

        ↓ Меню




        ↓ Опрос

        Вы добавили сайт в закладки?
        Да
        Нет


        Top 10 за месяц (КПК и мобильные)