.
Авторизация | Регистрация
Хочешь лучшие торренты? Добавь свой email!
Добавить

Торрент скачать бесплатно

  • support: webmaster@btracker.org
» » Росомаха: Бессмертный / The Wolverine (2013) HDRip [H.264] [MP4|1280x532] [Extended Cut] торрент скачать бесплатно


    Росомаха: Бессмертный / The Wolverine (2013) HDRip [H.264] [MP4|1280x532] [Extended Cut] торрент скачать бесплатно

    Опубликовал: Админ | Дата: 25-03-2018, 05:00 | .torrent скачали: 0

    Росомаха: Бессмертный / The Wolverine (2013) HDRip [H.264] [MP4|1280x532] [Extended Cut]Производство: США, Великобритания, Австралия, Япония
    Жанр: Фантастика, Боевик, Триллер, Приключения
    Режиссер: Джеймс Мэнголд
    Продюсер: Хатч Паркер, Лорен Шулер Доннер, Джозеф М. Карачиоло мл.
    Актеры: Хью Джекман, Тао Окамото, Рила Фукусима, Светлана Ходченкова, Уилл Юн Ли, Харукико Яманоути, Хироюки Санада, Брайан Ти, Кен Ямамура, Фамке Янссен, Нобутака Аояги, Сейдзи Фунамото, Синдзи Икефуджи, Киоко Саито, Нубаки Какуда, Чихару Мидзуно, Такао Киносита, Конрад Колеби, Тарис Тайлер, Аллан Попплтон

    Описание

    Новая глава приключений Росомахи развернётся в Японии, где Логану предстоит выяснить, что острее — когти Росомахи или меч Серебряного Самурая.

    Возраст: 12+ (зрителям, достигшим 12 лет)
    Рейтинг MPAA: PG-13 (детям до 13 лет просмотр нежелателен)
    Дата мировой премьеры: 16 июля 2013
    Дата российской премьеры: 25 июля 2013
    Продолжительность: 02: 18: 05
    Качество видео: HDRip
    Перевод: Дублированный (Лицензия)
    Субтитры: Русские (полные), Английские (полные)
    Видео: AVC/H.264, 1280x532, ~1192 Kbps
    Аудио: AAC, 2 ch, ~128 Kbps

    Общее
    Полное имя : E: Download1Росомаха Бессмертный 2013 720p.mp4
    Формат : MPEG-4
    Профиль формата : Base Media
    Идентификатор кодека : isom (isom/avc1)
    Размер файла : 1, 28 Гбайт
    Продолжительность : 2 ч. 18 м.
    Режим общего битрейта : Переменный
    Общий поток : 1323 Кбит/сек
    Дата кодирования : UTC 2018-03-17 16: 19: 43
    Дата пометки : UTC 2018-03-17 16: 19: 43
    Видео
    Идентификатор : 1
    Формат : AVC
    Формат/Информация : Advanced Video Codec
    Профиль формата : High@L3.1
    Настройки формата : CABAC/1 Ref Frames
    Параметр CABAC формата : Да
    Параметр RefFrames формата : 1 кадр
    Идентификатор кодека : avc1
    Идентификатор кодека/Информация : Advanced Video Coding
    Продолжительность : 2 ч. 18 м.
    Битрейт : 1192 Кбит/сек
    Максимальный битрейт : 5453 Кбит/сек
    Ширина : 1280 пикселей
    Высота : 532 пикселя
    Соотношение сторон : 2, 40: 1
    Режим частоты кадров : Постоянный
    Частота кадров : 23, 976 (24000/1001) кадра/сек
    Цветовое пространство : YUV
    Субдискретизация насыщенности : 4: 2: 0
    Битовая глубина : 8 бит
    Тип развёртки : Прогрессивная
    Бит/(Пиксели*Кадры) : 0.073
    Размер потока : 1, 15 Гбайт (90%)
    Дата кодирования : UTC 2018-03-17 16: 19: 43
    Дата пометки : UTC 2018-03-17 16: 23: 44
    Цветовой диапазон : Limited
    Основные цвета : BT.709
    Характеристики трансфера : BT.709
    Коэффициенты матрицы : BT.709
    Аудио
    Идентификатор : 2
    Формат : AAC
    Формат/Информация : Advanced Audio Codec
    Профиль формата : LC
    Идентификатор кодека : mp4a-40-2
    Продолжительность : 2 ч. 18 м.
    Вид битрейта : Переменный
    Битрейт : 128 Кбит/сек
    Максимальный битрейт : 136 Кбит/сек
    Каналы : 2 канала
    Расположение каналов : Front: L R
    Частота : 48, 0 КГц
    Частота кадров : 46, 875 кадров/сек (1024 SPF)
    Метод сжатия : С потерями
    Размер потока : 127 Мбайт (10%)
    Заголовок : Дублированный (Лицензия)
    Язык : Russian
    Дата кодирования : UTC 2018-03-17 16: 22: 53
    Дата пометки : UTC 2018-03-17 16: 23: 44
    Текст #1
    Идентификатор : 3
    Формат : Timed Text
    Идентификатор кодека : tx3g
    Продолжительность : 2 ч. 11 м.
    Вид битрейта : Переменный
    Битрейт : 50 бит/сек
    Размер потока : 47, 5 Кбайт (0%)
    Заголовок : Full
    Язык : Russian
    Forced : Нет
    Дата кодирования : UTC 2018-03-17 16: 23: 44
    Дата пометки : UTC 2018-03-17 16: 23: 44
    Текст #2
    Идентификатор : 4
    Формат : Timed Text
    Идентификатор кодека : tx3g
    Продолжительность : 2 ч. 11 м.
    Вид битрейта : Переменный
    Битрейт : 33 бит/сек
    Размер потока : 31, 5 Кбайт (0%)
    Заголовок : Full
    Язык : English
    Forced : Нет
    Дата кодирования : UTC 2018-03-17 16: 23: 44
    Дата пометки : UTC 2018-03-17 16: 23: 44
    Скриншоты:


    Все одноименные релизы в Клубе
    Время раздачи: с 9: 00 до 21: 00 (до появления первых 3-5 скачавших)


    Росомаха: Бессмертный/The Wolverine (2013) HDRip [H.264] [MP4|1280x532] [Extended Cut]
    Рейтинг →
     (голосов: 1, оценка 5/5, голосовать можно 1 раз )

    Другие торренты по теме:

  • Росомаха: Бессмертный / The Wolverine (2013) BDRip [H.264 / 720p] [Extended Cut]
  • Росомаха: Бессмертный / The Wolverine (2013) BDRip [H.264 / 1080p] [Extended Cut]
  • Росомаха: Бессмертный / The Wolverine (2013) HDRip [Extended Cut] [AVO]
  • Росомаха: Бессмертный / The Wolverine (2013) HDRip [Extended Cut] [AVO]
  • Росомаха: Бессмертный / The Wolverine (2013) HDRip [H.264] [MP4|1920x798] [Extended Cut]


    • Комментарии (0):

      Информация

      Информация

        Посетители, находящиеся в группе Гости, не могут оставлять комментарии в данной новости.

        ↓ Меню




        ↓ Опрос

        Вы добавили сайт в закладки?
        Да
        Нет


        Top 10 за месяц (КПК и мобильные)