.
Авторизация | Регистрация
Хочешь лучшие торренты? Добавь свой email!
Добавить

Торрент скачать бесплатно

» » Росомаха: Бессмертный / The Wolverine (2013) HDRip [H.264] [MP4|1920x798] [Extended Cut] торрент скачать бесплатно


    Росомаха: Бессмертный / The Wolverine (2013) HDRip [H.264] [MP4|1920x798] [Extended Cut] торрент скачать бесплатно

    Опубликовал: Админ | Дата: 25-03-2018, 05:00 | .torrent скачали: 0

    Росомаха: Бессмертный / The Wolverine (2013) HDRip [H.264] [MP4|1920x798] [Extended Cut]Производство: США, Великобритания, Австралия, Япония
    Жанр: Фантастика, Боевик, Триллер, Приключения
    Режиссер: Джеймс Мэнголд
    Продюсер: Хатч Паркер, Лорен Шулер Доннер, Джозеф М. Карачиоло мл.
    Актеры: Хью Джекман, Тао Окамото, Рила Фукусима, Светлана Ходченкова, Уилл Юн Ли, Харукико Яманоути, Хироюки Санада, Брайан Ти, Кен Ямамура, Фамке Янссен, Нобутака Аояги, Сейдзи Фунамото, Синдзи Икефуджи, Киоко Саито, Нубаки Какуда, Чихару Мидзуно, Такао Киносита, Конрад Колеби, Тарис Тайлер, Аллан Попплтон

    Описание

    Новая глава приключений Росомахи развернётся в Японии, где Логану предстоит выяснить, что острее — когти Росомахи или меч Серебряного Самурая.

    Возраст: 12+ (зрителям, достигшим 12 лет)
    Рейтинг MPAA: PG-13 (детям до 13 лет просмотр нежелателен)
    Дата мировой премьеры: 16 июля 2013
    Дата российской премьеры: 25 июля 2013
    Продолжительность: 02: 18: 05
    Качество видео: HDRip
    Перевод: Дублированный (Лицензия)
    Субтитры: Русские (полные), Английские (полные)
    Видео: AVC/H.264, 1920x798, ~1749 Kbps
    Аудио: AC3, 6 ch, 384 Kbps

    Общее
    Полное имя : E: Download1Росомаха Бессмертный 2013 1080p.mp4
    Формат : MPEG-4
    Профиль формата : Base Media
    Идентификатор кодека : isom (isom/avc1/iso6)
    Размер файла : 2, 06 Гбайт
    Продолжительность : 2 ч. 18 м.
    Режим общего битрейта : Переменный
    Общий поток : 2135 Кбит/сек
    Дата кодирования : UTC 2018-03-17 16: 30: 42
    Дата пометки : UTC 2018-03-17 16: 30: 42
    Видео
    Идентификатор : 1
    Формат : AVC
    Формат/Информация : Advanced Video Codec
    Профиль формата : High@L4
    Настройки формата : CABAC/2 Ref Frames
    Параметр CABAC формата : Да
    Параметр RefFrames формата : 2 кадра
    Идентификатор кодека : avc1
    Идентификатор кодека/Информация : Advanced Video Coding
    Продолжительность : 2 ч. 18 м.
    Битрейт : 1749 Кбит/сек
    Максимальный битрейт : 9125 Кбит/сек
    Ширина : 1920 пикселей
    Высота : 798 пикселей
    Соотношение сторон : 2, 40: 1
    Режим частоты кадров : Постоянный
    Частота кадров : 23, 976 (24000/1001) кадра/сек
    Цветовое пространство : YUV
    Субдискретизация насыщенности : 4: 2: 0
    Битовая глубина : 8 бит
    Тип развёртки : Прогрессивная
    Бит/(Пиксели*Кадры) : 0.048
    Размер потока : 1, 69 Гбайт (82%)
    Дата кодирования : UTC 2018-03-17 16: 30: 42
    Дата пометки : UTC 2018-03-17 16: 35: 31
    Цветовой диапазон : Limited
    Основные цвета : BT.709
    Характеристики трансфера : BT.709
    Коэффициенты матрицы : BT.709
    Аудио
    Идентификатор : 2
    Формат : AC-3
    Формат/Информация : Audio Coding 3
    Параметр Endianness формата : Big
    Идентификатор кодека : ac-3
    Продолжительность : 2 ч. 18 м.
    Вид битрейта : Постоянный
    Битрейт : 384 Кбит/сек
    Максимальный битрейт : 406 Кбит/сек
    Каналы : 6 каналов
    Расположение каналов : Front: L C R, Side: L R, LFE
    Частота : 48, 0 КГц
    Частота кадров : 31, 250 кадров/сек (1536 SPF)
    Битовая глубина : 16 бит
    Метод сжатия : С потерями
    Размер потока : 379 Мбайт (18%)
    Заголовок : Дублированный (Лицензия)
    Язык : Russian
    ServiceKind/String : Complete Main
    Дата кодирования : UTC 2018-03-17 16: 34: 55
    Дата пометки : UTC 2018-03-17 16: 35: 31
    Текст #1
    Идентификатор : 3
    Формат : Timed Text
    Идентификатор кодека : tx3g
    Продолжительность : 2 ч. 11 м.
    Вид битрейта : Переменный
    Битрейт : 50 бит/сек
    Размер потока : 47, 5 Кбайт (0%)
    Заголовок : Full
    Язык : Russian
    Forced : Нет
    Дата кодирования : UTC 2018-03-17 16: 35: 31
    Дата пометки : UTC 2018-03-17 16: 35: 31
    Текст #2
    Идентификатор : 4
    Формат : Timed Text
    Идентификатор кодека : tx3g
    Продолжительность : 2 ч. 11 м.
    Вид битрейта : Переменный
    Битрейт : 33 бит/сек
    Размер потока : 31, 5 Кбайт (0%)
    Заголовок : Full
    Язык : English
    Forced : Нет
    Дата кодирования : UTC 2018-03-17 16: 35: 31
    Дата пометки : UTC 2018-03-17 16: 35: 31
    Скриншоты:


    Все одноименные релизы в Клубе
    Время раздачи: с 9: 00 до 21: 00 (до появления первых 3-5 скачавших)


    Росомаха: Бессмертный/The Wolverine (2013) HDRip [H.264] [MP4|1920x798] [Extended Cut]
    Рейтинг →
     (голосов: 1, оценка 4/5, голосовать можно 1 раз )

    Другие торренты по теме:

  • Росомаха: Бессмертный / The Wolverine (2013) BDRip [H.264 / 720p] [Extended Cut]
  • Росомаха: Бессмертный / The Wolverine (2013) BDRip [H.264 / 1080p] [Extended Cut]
  • Росомаха: Бессмертный / The Wolverine (2013) HDRip [Extended Cut] [AVO]
  • Росомаха: Бессмертный / The Wolverine (2013) HDRip [Extended Cut] [AVO]
  • Росомаха: Бессмертный / The Wolverine (2013) HDRip [H.264] [MP4|1280x532] [Extended Cut]


    • Комментарии (0):

      Информация

      Информация

        Посетители, находящиеся в группе Гости, не могут оставлять комментарии в данной новости.

        ↓ Меню




        ↓ Опрос

        Вы добавили сайт в закладки?
        Да
        Нет


        Top 10 за месяц (КПК и мобильные)